вход на сайт

Имя пользователя :
Пароль :

Восстановление пароля Регистрация
Война миров Z [Театральная версия] / World War Z [Theatrical Cut] (Марк Форстер, Ужасы, фантастика, боевик, триллер, приключения, 2013) [BDRip, Дубляж]
Рейтинг:
(голосов: 1)



[img]{THEME}/images/logopost.png[/img]



Война миров Z [Театральная версия] / World War Z [Theatrical Cut]
«Remember Philly!»

Год выпуска: 2013
Страна: США
Производство: Apparatus Productions, GK Films, Hemisphere Media Capital, Paramount Pictures
Жанр: Ужасы, фантастика, боевик, триллер

Режиссёр: Марк Форстер
В ролях: Брэд Питт, Мирей Инос, Стерлинг Джеринс, Эбигейл Харгров, Даниэла Картес, Фана Мокоэна, Пьерфранческо Фавино, Питер Капальди, Мориц Бляйбтрой, Рут Негга, Джеймс Бэдж Дэйл, Мэттью Фокс, Луди Бокен, Дэвид Морc, Элайес Габел, Питер Капальди

Перевод: Дубляж
Субтитры: Отсутствуют

Описание: Сотрудник ООН Джерри Лэйн наперегонки со временем пытается остановить заражение, способное полностью истребить человечество.



Качество: BDRip [World_War_Z_BLUEBIRD] | Сравнение скриншотов с этой раздачей- отсутстувует плавающий кроп. | Сэмпл |
Продолжительность: 01:56:02 час.

Формат: AVI
Видео кодек: XviD
Аудио кодек: AC3
Видео: 720x304 (2.35:1), 23.976 fps, XviD build 65 ~1 412 kbps avg, 0.269 bit/pixel
Аудио: 48 kHz, AC3 Dolby Digital, 3/2 (L,C,R,l,r) + LFE ch, ~384 kbps avg - (Дубляж)

Дата премьеры (мир): 2 июня 2013
Дата премьеры (РФ): 27 июня 2013, «Централ Партнершип»

MediaInfo ▼
General
Complete name : D:World.War.Z.2013.Dub.Theatrical.Cut.EUR.BDRip.1,46Gb.XviD.AC3.avi
Format : AVI
Format/Info : Audio Video Interleave
File size : 1.46 GiB
Duration : 1h 56mn
Overall bit rate : 1 805 Kbps
Writing application : VirtualDubModRus 1.5.10.2 (build 2542/release)
Writing library : VirtualDubMod build 2542/release

Video
ID : 0
Format : MPEG-4 Visual
Format profile : Advanced [email protected]
Format settings, BVOP : 1
Format settings, QPel : No
Format settings, GMC : No warppoints
Format settings, Matrix : Custom
Codec ID : XVID
Codec ID/Hint : XviD
Duration : 1h 56mn
Bit rate : 1 412 Kbps
Width : 720 pixels
Height : 304 pixels
Display aspect ratio : 2.35:1
Frame rate : 23.976 fps
Color space : YUV
Chroma subsampling : 4:2:0
Bit depth : 8 bits
Scan type : Progressive
Compression mode : Lossy
Bits/(Pixel*Frame) : 0.269
Stream size : 1.14 GiB (78%)
Writing library : XviD 65

Audio
ID : 1
Format : AC-3
Format/Info : Audio Coding 3
Mode extension : CM (complete main)
Format settings, Endianness : Big
Codec ID : 2000
Duration : 1h 56mn
Bit rate mode : Constant
Bit rate : 384 Kbps
Channel(s) : 6 channels
Channel positions : Front: L C R, Side: L R, LFE
Sampling rate : 48.0 KHz
Bit depth : 16 bits
Compression mode : Lossy
Stream size : 319 MiB (21%)
Alignment : Split accross interleaves
Interleave, duration : 42 ms (1.00 video frame)
Interleave, preload duration : 500 ms
Title : Dub







ae7e137f63535a567f89d8442a224cc0f074af07Война миров Z [Театральная версия] / World War Z [Theatrical Cut] (Марк Форстер, Ужасы, фантастика, боевик, триллер, приключения, 2013) [BDRip, Дубляж] Война миров Z [Театральная версия] / World War Z [Theatrical Cut] (Марк Форстер, Ужасы, фантастика, боевик, триллер, приключения, 2013) [BDRip, Дубляж] " />

Аплоадер: Админ, дата: 3-10-2013, 18:52, торрент скачан: 359 раз

Понравилась раздача? Посмотрите эти:
  • Война миров Z / World War Z [Unrated Cut] (Марк Форстер, ужасы, фантастика, ...
  • Война миров Z / World War Z (Марк Форстер, ужасы, фантастика, боевик, трилл ...
  • [iPhone, iPod] Война миров Z / World War Z (Марк Форстер, ужасы, фантастик ...
  • Война миров Z / World War Z [UNRATED] (Марк Форстер, Ужасы, Фантастика, Бое ...
  • Война миров Z / World War Z (Марк Форстер, ужасы, фантастика, боевик, трил ...
  • Война миров Z / World War Z [Theatrical Cut] (Марк Форстер, ужасы, фантасти ...
  • Война миров Z / World War Z (Марк Форстер, ужасы, фантастика, боевик, трилл ...
  • Война миров Z / World War Z [Расширенная версия] (Марк Форстер, ужасы, фант ...
  • Война миров Z / World War Z [UNRATED] (Марк Форстер, ужасы, фантастика, бое ...
  • Война миров Z / World War Z [Theatrical Cut] (Марк Форстер, ужасы, фантасти ...
  • Война миров Z / World War Z (Марк Форстер, Ужасы, фантастика, боевик, трилл ...
  • [3D] Война миров Z / World War Z [Theatrical Cut] (Марк Форстер, Ужасы, Фа ...
  • Война миров Z / World War Z (Марк Форстер, ужасы, фантастика, боевик, трилл ...
  • Война миров Z / World War Z [Theatrical Cut] (Марк Форстер, ужасы, фантасти ...
  • Война миров Z / World War Z (Марк Форстер, ужасы, фантастика, боевик, трилл ...
  • Война миров Z / World War Z [Theatrical Cut] (Марк Форстер, ужасы, фантасти ...
  • Война миров Z / World War Z (Марк Форстер, ужасы, фантастика, боевик, трилл ...
  • Поймай толстуху, если сможешь [Театральная версия] / Identity Thief [Theatr ...
  • G.I. Joe: Бросок кобры 2 [Театральная версия] / G.I. Joe: Retaliation [Thea ...
  • Заложница 2 [Театральная версия] / Taken 2 [Theatrical Cut] (Оливье Мегатон ...
  • Информация
    Посетители, находящиеся в группе Гости, не могут оставлять комментарии к данной публикации.