вход на сайт

Имя пользователя :
Пароль :

Восстановление пароля Регистрация
Багровая мгла / Freakdog / Red Mist (Пэдди Бретнэк, ужасы, триллер, 2008) [BDRip-AVC, Профессиональный (многоголосый закадровый), оригинал (Английский), Sub]
Рейтинг:
(голосов: 1)



[img]{THEME}/images/logopost.png[/img]



Багровая мгла / Freakdog / Red Mist


Год выпуска: 2008
Страна: Великобритания
Производство: Framestore CFC, Generator Entertainment, Geronimo Films
Жанр: ужасы, триллер

Режиссёр: Пэдди Бретнэк
В ролях: Ариэль Кеббел (Catherine), Сара Картер (Kim), Стивен Диллэйн (Dr. Harris), Эндрю Ли Поттс (Kenneth), Алекс Уиндэм (Jake), Кэти МакГрат (Harriet), Кристина Чонг (Yoshimi), Мартин Компстон (Sean), Майкл Джибсон (Steve), МайАнна Бёринг (Shelby), Колин Стинтон (Detective Cartert), Ник Хардин (Walt), Майкл Дж. Рейнольдс (Dr. Stegman), Сара Бойд-Уилсон (Vanessa), Арт Паркинсон (Young Kenneth), Брона Таггарт (Kenneths Mother), Эммет Скэнлэн (Stranger)

Перевод 1: Профессиональный (многоголосый закадровый)
Перевод 2: Oригинал (Английский)
Субтитры: Pусские, Aнглийские

Описание: Молодая доктор вводит некий экспериментальный коктейль наркотических веществ пациенту, находящемуся в коме. В результате пациент выходит из комы, но довольно оригинальным образом — его дух начинает вселяться в тела других людей и, используя эти тела, мстит студентам-медикам, по вине которых он и впал в состояние комы. Главная героиня тоже входит в число его потенциальных жертв…





Качество: BDRip-AVC | исх.Freakdog-Red.Mist.2008.BDRemux.VC1.AC3
Продолжительность: 01:25:26

Формат: MKV
Видео кодек: x.264
Аудио кодек: AC3
Видео: 1152x648 (16:9), 23.976 fps, x264 ~2826 kbps avg, 0.158 bit/pixel
Аудио 1: Русский / 48 kHz, AC3 Dolby Digital, 3/2 (L,C,R,l,r) + LFE ch, ~384kbps avg
Аудио 2: Английский / 48 kHz, AC3 Dolby Digital, 3/2 (L,C,R,l,r) + LFE ch, ~448 kbps avg
Media Info ▼Complete name : Freakdog-Red.Mist.2008.BDRip-AVC.MVO.mkv
Format : Matroska
Format version : Version 2
File size : 2.18 GiB
Duration : 1h 25mn
Overall bit rate : 3 660 Kbps
Encoded date : UTC 2013-09-26 15:14:27
Writing application : mkvmerge v5.8.0 (No Sleep / Pillow) built on Sep 2 2012 15:37:04
Writing library : libebml v1.2.3 + libmatroska v1.3.0

Video
ID : 1
Format : AVC
Format/Info : Advanced Video Codec
Format profile : [email protected]
Format settings, CABAC : Yes
Format settings, ReFrames : 11 frames
Codec ID : V_MPEG4/ISO/AVC
Duration : 1h 25mn
Bit rate : 2 826 Kbps
Width : 1 152 pixels
Height : 648 pixels
Display aspect ratio : 16:9
Frame rate mode : Constant
Frame rate : 23.976 fps
Color space : YUV
Chroma subsampling : 4:2:0
Bit depth : 8 bits
Scan type : Progressive
Bits/(Pixel*Frame) : 0.158
Stream size : 1.64 GiB (75%)
Title : Freakdog / Red Mist 2008
Writing library : x264 core 135 r2345 f0c1c53
Encoding settings : cabac=1 / ref=11 / deblock=1:-3:-3 / analyse=0x3:0x113 / me=umh / subme=10 / psy=1 / psy_rd=1.05:0.00 / mixed_ref=1 / me_range=24 / chroma_me=1 / trellis=2 / 8x8dct=1 / cqm=0 / deadzone=21,11 / fast_pskip=1 / chroma_qp_offset=-2 / threads=6 / lookahead_threads=1 / sliced_threads=0 / nr=0 / decimate=1 / interlaced=0 / bluray_compat=0 / constrained_intra=0 / bframes=9 / b_pyramid=2 / b_adapt=2 / b_bias=0 / direct=3 / weightb=1 / open_gop=0 / weightp=2 / keyint=250 / keyint_min=23 / scenecut=40 / intra_refresh=0 / rc_lookahead=60 / rc=2pass / mbtree=1 / bitrate=2826 / ratetol=1.0 / qcomp=0.60 / qpmin=0 / qpmax=69 / qpstep=4 / cplxblur=20.0 / qblur=0.5 / ip_ratio=1.40 / aq=1:0.90
Default : Yes
Forced : No

Audio #1
ID : 2
Format : AC-3
Format/Info : Audio Coding 3
Mode extension : CM (complete main)
Format settings, Endianness : Big
Codec ID : A_AC3
Duration : 1h 25mn
Bit rate mode : Constant
Bit rate : 384 Kbps
Channel(s) : 6 channels
Channel positions : Front: L C R, Side: L R, LFE
Sampling rate : 48.0 KHz
Bit depth : 16 bits
Compression mode : Lossy
Stream size : 235 MiB (10%)
Title : RUS AC3 384 Kbps 6ch MVO
Language : Russian
Default : Yes
Forced : No

Audio #2
ID : 3
Format : AC-3
Format/Info : Audio Coding 3
Mode extension : CM (complete main)
Format settings, Endianness : Big
C
62170deff61ceaa6d64d95d82c57278c81d341fcБагровая мгла / Freakdog / Red Mist (Пэдди Бретнэк, ужасы, триллер, 2008) [BDRip-AVC, Профессиональный (многоголосый закадровый), оригинал (Английский), Sub] Багровая мгла / Freakdog / Red Mist (Пэдди Бретнэк, ужасы, триллер, 2008) [BDRip-AVC, Профессиональный (многоголосый закадровый), оригинал (Английский), Sub] " />

Аплоадер: Админ, дата: 27-09-2013, 17:34, торрент скачан: 359 раз

Понравилась раздача? Посмотрите эти:
  • Сезон убийц / Killing Season (Марк Стивен Джонсон, триллер, драма, боевик, ...
  • Погнали! / Getaway (Кортни Соломон, боевик, криминал, 2013) [BDRip 720p, Пр ...
  • Пастырь / Priest (Скотт Чарльз Стюарт, ужасы, фантастика, боевик, триллер, ...
  • Багровая мгла / Freakdog (Пэдди Бретнэк, ужасы, триллер, 2008) [BDRip, Авт ...
  • Ледяной / The Iceman (Ариэль Вромен, драма, криминал, биография, 2013) [BDR ...
  • Посылка / The Package (Джесси Джонсон, боевик, 2013) [BDRip 720p, Профессио ...
  • Четвертый вид / The Fourth Kind (Олатунде Осунсанми, ужасы, фантастика, 200 ...
  • 42 / 42 (Брайан Хелгеленд, Драма, биография, спорт, 2013) [BDRip 720p, Проф ...
  • Хроника / Chronicle (Джошуа Транк, фантастика, боевик, триллер, драма, 2012 ...
  • Соучастник / Collateral (Майкл Манн, Триллер, драма, криминал, 2004) [BDRip ...
  • Запретная любовь / The Edge of Love (Джон Мэйбери, Драма, мелодрама, военны ...
  • Бессмертные души / Soul Survivors (Стивен Карпентер, ужасы, триллер, драма, ...
  • Безопасность не гарантируется / Safety Not Guaranteed (Колин Треворроу, фан ...
  • Джекпот / Arme Riddere (Магнус Мартенс, Боевик, комедия, криминал, 2011) [B ...
  • Фантомы / Shutter (Масаюки Очиай, ужасы, триллер, детектив, 2008) [BDRip-AV ...
  • Пятница 13-е / Friday the 13th (Шон С. Каннингэм, ужасы, триллер, детектив, ...
  • Пятница 13-е Часть III / Friday the 13th Part III (Стив Майнер, ужасы, трил ...
  • Коллекционер 2 / The Collection (Маркус Данстэн, ужасы, боевик, триллер , 2 ...
  • Ворон / The Raven (Джеймс МакТиг, Триллер, детектив, 2012) [BDRip 720p, Дуб ...
  • Семь футов / Seven Below (Кевин Каррауэй, Ужасы, триллер, 2012) [BDRip 720p ...
  • Патруль / End of Watch (Дэвид Эйр, Триллер, драма, криминал, 2012) [BDRip 7 ...
  • Mylene Farmer / Du Temps [2011, Pop, HDTVRip]
  • Mylene Farmer / Bleu Noir [2011, Pop, HDTVRip]
  • PBS: Природа – Гималаи / PBS: Nature – The Himalayas (Крис Морган, Докумен ...
  • Футбольные гладиаторы / Ушедшее время / Awaydays (Пэт Холден, драма, кримин ...
  • Информация
    Посетители, находящиеся в группе Гости, не могут оставлять комментарии к данной публикации.