вход на сайт

Имя пользователя :
Пароль :

Восстановление пароля Регистрация
Коллекционер [Дилогия] / The Collection [Dilogy] (Маркус Данстэн, Ужасы, боевик, триллер, 2012) [BDRip-AVC, Профессиональный (полное дублирование)]
Рейтинг:
(голосов: 1)



[img]{THEME}/images/logopost.png[/img]



Коллекционер / The Collector ▼
Коллекционер / The Collector
«Кто будет следующим в его коллекции?»

Год выпуска: 2009
Страна: США
Производство: Fortress Features, Imaginarium Entertainment Group, Liddell Entertainment
Жанр: Ужасы, триллер

Режиссёр: Маркус Данстэн
В ролях: Мадлен Зима, Андреа Рот, Джош Стюарт, Хуан Фернандес, Даниелла Алонсо, Роберт Уиздом, Майкл Рейли Бурк, Карли Скотт Коллинз, Кристал Майо, Дайан Голднер

Перевод: Профессиональный (полное дублирование)
Субтитры: Отсутствуют

Описание: Бывший домушник Аркин забирается в загородный коттедж своего начальника с тем, чтобы ограбив его, выплатить долг своей бывшей жене. Однако попав внутрь, он вскоре понимает, что дом и его обитатели уже захвачены крайне неприятным типом в плюшевой маске и при полном наборе пыточных инструментов времен Испанской Инквизиции, после чего предпринимает отчаянную попытку спасти семью, которую он изначально собирался обчистить.
Качество: BDRip-AVC
Продолжительность: 01:29:54 час.

Формат: MKV
Видео кодек: x264
Аудио кодек: AC3
Видео: 1280x534 (2.40:1), 23,976 fps, AVC ~2 817 kbps avg, 0.172 bit/pixel
Аудио#1: 48 kHz, AC3, 3/2 (L,C,R,l,r) + LFE ch, ~640 kbps| Профессиональный (полное дублирование)

Премьера (мир) - 31 июля 2009
Премьера (РФ) - 5 августа 2010, «Каравелла DDC»

Скриншоты ▼
MediaInfo ▼ Format : Matroska
Format version : Version 4 / Version 2
File size : 2.18 GiB
Duration : 1h 31mn
Overall bit rate : 3 423 Kbps
Movie name : Коллекционер.(2009).BDRip.720p.от.[NoLimits-Team].[mitrian]
Encoded date : UTC 2010-02-22 21:41:31
Writing application : mkvmerge v5.9.0 (On The Loose) built on Dec 9 2012 15:37:01
Writing library : libebml v1.3.0 + libmatroska v1.4.0

Video
ID : 1
Format : AVC
Format/Info : Advanced Video Codec
Format profile : [email protected]
Format settings, CABAC : Yes
Format settings, ReFrames : 12 frames
Codec ID : V_MPEG4/ISO/AVC
Duration : 1h 31mn
Bit rate : 2 817 Kbps
Width : 1 280 pixels
Height : 534 pixels
Display aspect ratio : 2.40:1
Original display aspect ratio : 2.40:1
Frame rate mode : Constant
Frame rate : 23.976 fps
Color space : YUV
Chroma subsampling : 4:2:0
Bit depth : 8 bits
Scan type : Progressive
Bits/(Pixel*Frame) : 0.172
Stream size : 1.73 GiB (79%)
Title : Коллекционер (2009) BDRip 720p от NoLimits-Team
Writing library : x264 core 129 r2230 1cffe9f
Encoding settings : cabac=1 / ref=12 / deblock=1:-3:-2 / analyse=0x3:0x113 / me=umh / subme=10 / psy=1 / psy_rd=1.00:0.10 / mixed_ref=1 / me_range=32 / chroma_me=1 / trellis=2 / 8x8dct=1 / cqm=0 / deadzone=21,11 / fast_pskip=0 / chroma_qp_offset=-3 / threads=6 / lookahead_threads=1 / sliced_threads=0 / slices=4 / nr=0 / decimate=0 / interlaced=0 / bluray_compat=0 / constrained_intra=0 / bframes=5 / b_pyramid=2 / b_adapt=2 / b_bias=0 / direct=3 / weightb=1 / open_gop=0 / weightp=2 / keyint=240 / keyint_min=24 / scenecut=40 / intra_refresh=0 / rc_lookahead=60 / rc=2pass / mbtree=1 / bitrate=2817 / ratetol=2.0 / qcomp=0.60 / qpmin=0 / qpmax=51 / qpstep=4 / cplxblur=20.0 / qblur=0.5 / ip_ratio=1.40 / aq=1:1.00
Language : English
Default : Yes
Forced : No

Audio
ID : 2
Format : AC-3
Format/Info : Audio Coding 3
Mode extension : CM (complete main)
Format settings, Endianness : Big
Codec ID : A_AC3
Duration : 1h 31mn
Bit rate mode : Constant
Bit rate : 640 Kbps
Channel(s) : 6 channels
Channel positions : Front: L C R, Side: L R, LFE
Sampling rate : 48.0 KHz
Bit depth : 16 bits
Compression mode : Lossy
Stream size : 417 MiB (19%)
Title : Дубляж
Default : Yes
Forced : No

Menu
00:00:00.000 : en:00:00:00.000
00:09:00.000 : en:00:09:00.000
00:19:00.000 : en:00:19:00.000
00:32:00.000 : en:00:32:00.000
00:39:00.000 : en:00:39:00.000
00:49:00.000 : en:00:49:00.000
00:59:00.000 : en:00:59:00.000
01:08:00.000 : en:01:08:00.000
c8a047fc9614743f0f6f003d4e4b35c1ee18cf23Коллекционер [Дилогия] / The Collection [Dilogy] (Маркус Данстэн, Ужасы, боевик, триллер, 2012) [BDRip-AVC, Профессиональный (полное дублирование)] Коллекционер [Дилогия] / The Collection [Dilogy] (Маркус Данстэн, Ужасы, боевик, триллер, 2012) [BDRip-AVC, Профессиональный (полное дублирование)] " />

Аплоадер: Админ, дата: 20-11-2013, 21:03, торрент скачан: 359 раз

Понравилась раздача? Посмотрите эти:
  • Пастырь / Priest (Скотт Чарльз Стюарт, ужасы, фантастика, боевик, триллер, ...
  • Четвертый вид / The Fourth Kind (Олатунде Осунсанми, ужасы, фантастика, 200 ...
  • Коллекционер / The Collector (Уильям Уайлер, Триллер, драма, 1965) [BDRip-A ...
  • Коллекционер 2 / The Collection (Маркус Данстэн, Ужасы, боевик, триллер, 20 ...
  • Коллекционер / The Collector (Маркус Данстэн, Ужасы, Триллер, 2009) [320x24 ...
  • Коллекционер 2 / The Collector (Маркус Данстэн, Ужасы, Боевик, Триллер, 201 ...
  • Коллекционер 2 / The Collection (Маркус Данстэн, Ужасы, боевик, триллер, 20 ...
  • Коллекционер 2 / The Collection (Маркус Данстэн, ужасы, боевик, триллер, 20 ...
  • Коллекционер 2 / The Collection (Маркус Данстэн, ужасы, боевик, триллер , 2 ...
  • Коллекционер 2 / The Collection (Маркус Данстэн, ужасы, боевик, триллер , 2 ...
  • Коллекционер 2 / The Collection (Маркус Данстэн, Ужасы, боевик, триллер, 20 ...
  • Коллекционер / The Collector (Маркус Данстэн, ужасы, триллер, 2009) [HDRip- ...
  • Коллекционер / The Collector (Маркус Данстэн, ужасы, триллер, 2009) [BDRip ...
  • Коллекционер 2 / The Collection (Маркус Данстэн, ужасы, боевик, триллер, 20 ...
  • Коллекционер 2 / The Collection (Маркус Данстэн, ужасы, боевик, триллер, 20 ...
  • Коллекционер / The Collector (Маркус Данстэн, Ужасы, триллер, 2009) [BDRip- ...
  • Коллекционер / The Collector (Маркус Данстэн / Marcus Dunstan, Ужасы, трилл ...
  • Коллекционер / The Collector (Маркус Данстэн, ужасы, триллер, 2009) [HDRip, ...
  • Коллекционер / The Collector (Маркус Данстэн, ужасы, триллер, криминал, 200 ...
  • [Трейлер] Коллекционер 2 / The Collection (Маркус Данстэн, ужасы, боевик, т ...
  • Информация
    Посетители, находящиеся в группе Гости, не могут оставлять комментарии к данной публикации.