вход на сайт

Имя пользователя :
Пароль :

Восстановление пароля Регистрация
Паранормальное явление 4 / Paranormal Activity 4 [Unrated Directors Cut] (Генри Джуст / Henry Joost, Эриель Шульман / Ariel Schulman, ужасы, 2012) [HDRip, Дубляж + субтитры]
Рейтинг:
(голосов: 1)



[img]{THEME}/images/logopost.png[/img]



Паранормальное явление 4 / Paranormal Activity 4
«Что же произошло на самом деле ?»

Год выпуска: 2012
Страна: США
Производство: Room 101
Жанр: ужасы

Режиссёр: Генри Джуст / Henry Joost, Эриель Шульман / Ariel Schulman
В ролях: Кэтрин Ньютон (Alex), Кэти Физерстон (Katie), Мэтт Шивли (Ben), Алексондра Ли (Holly), Стивен Данэм (Doug), Сара Морнелл (Debbie), Брэйди Аллен (Robbie), Эйден Лавкамп (Wyatt), Брэндон Хэйл Эггерсен (Derrick), Алиша Боэ (Alexs Friend), Уильям Хуан Прието (Hunter)...

Перевод: Дубляж (на расширенные места субтитры)
Субтитры: Русские (Перевел Влад Кардаш Правка JekSoN & Vika_35), Английские

Описание: Действие разворачивается спустя 5 лет с момента событий фильма «Паранормальное явление 2». Алекс и её бойфренд борются с паранормальной активностью в их доме.

Качество: HDRip [100% Совместимость с бытовыми DVD Плеерами]
Продолжительность: 01:36:41

Формат: AVI
Видео кодек: XviD
Аудио кодек: MP3
Видео: 640x352 (1.82:1), 23.976 fps, XviD MPEG-4 ~874 kbps avg, 0.16 bit/pixel
Аудио: 44.100 kHz, MPEG Layer 3, 2 ch, ~192.00 kbps avg Дубляж

Дата премьеры (мир): 27 сентября 2012
Дата премьеры (РФ): 18 октября 2012, «Централ Партнершип»

"Доп. информация" ▼Данная версия длиннее обычной на 9 мин
Перевод не полный на расширенные места предлагаю читать субтитры.
"MI" ▼Общее
Полное имя : D:Рипы выкладка [Deadmauvlad]Paranormal.Activity.4.2012.HDRip.Deadmauvlad.D.Unrated Directors Cut.Dub+Sub[Rus.Eng]Paranormal.Activity.4.2012.HDRip.Deadmauvlad.D.Unrated Directors Cut.avi
Формат : AVI
Формат/Информация : Audio Video Interleave
Размер файла : 744 Мбайт
Продолжительность : 1 ч. 36 м.
Общий поток : 1076 Кбит/сек
Название фильма : Paranormal.Activity.4.2012.HDRip.Deadmauvlad.D.Unrated Directors Cut
Режиссёр : Deadmauvlad
Жанр : Ужасы
Программа кодирования : VirtualDubMod 1.5.10.3 | www.virtualdub-fr.org || (build 2550/release)
Формат оригинала/Имя : Фильм
Правообладатель : Goldenshara

Видео
Идентификатор : 0
Формат : MPEG-4 Visual
Профиль формата : Advanced [email protected]
Параметр BVOP формата : 4
Параметр QPel формата : Нет
Параметр GMC формата : Без точки перехода
Параметр матрицы формата : Default (H.263)
Режим смешивания : Сжатый битовый поток
Идентификатор кодека : XVID
Идентификатор кодека/Подсказка : XviD
Продолжительность : 1 ч. 36 м.
Битрейт : 874 Кбит/сек
Ширина : 640 пикселей
Высота : 352 пикселя
Соотношение сторон : 16:9
Частота кадров : 23,976 кадра/сек
Цветовое пространство : YUV
Субдискретизация насыщенности : 4:2:0
Битовая глубина : 8 бит
Тип развёртки : Прогрессивная
Метод сжатия : С потерями
Бит/(Пиксели*Кадры) : 0.162
Размер потока : 604 Мбайт (81%)
Библиотека кодирования : XviD 64

Аудио
Идентификатор : 1
Формат : MPEG Audio
Версия формата : Version 1
Профиль формата : Layer 3
Идентификатор кодека : 55
Идентификатор кодека/Подсказка : MP3
Продолжительность : 1 ч. 36 м.
Вид битрейта : Постоянный
Битрейт : 192 Кбит/сек
Каналы : 2 канала
Частота : 44,1 КГц
Метод сжатия : С потерями
Размер потока : 133 Мбайт (18%)
Выравнивание : Разделение по промежуткам
Продолжительность промежутка : 42 мс. (1,00 видеокадр)
Время предзагрузки промежутка : 500 мс.
Библиотека кодирования : LAME3.99r
Настройки программы : -m s -V 4 -q 2 -lowpass 18.6 -b 192

Общее
Полное имя : D:Рипы выкладка [Deadmauvlad]Paranormal.Activity.4.2012.HDRip.Deadmauvlad.D.Unrated Directors Cut.Dub+Sub[Rus.Eng]Paranormal.Activity.4.2012.HDRip.Deadmauvlad.D.Unrated Directors Cut.ENG.srt
Формат : SubRip
Размер файла : 81,1 Кбайт

Текст
Формат : SubRip
Метод сжатия : Без потерь

Общее
Полное имя : D:Рипы выкладка [Deadmauvlad]Paranormal.Activity.4.2012.HDRip.Deadmauvlad.D.Unrated Directors Cut.Dub+Sub[Rus.Eng]Paranormal.Activity.4.2012.HDRip.Deadmauvlad.D.Unrated Directors Cut.RUS.srt
Формат : SubRip
Размер файла : 105 Кбайт

Текст
Формат : SubRip
Метод сжатия : Без потерь
 
ac81bb62b7b5c2bf32770a4453e0b1dd42feff86Паранормальное явление 4 / Paranormal Activity 4 [Unrated Directors Cut] (Генри Джуст / Henry Joost, Эриель Шульман / Ariel Schulman, ужасы, 2012) [HDRip, Дубляж + субтитры] Паранормальное явление 4 / Paranormal Activity 4 [Unrated Directors Cut] (Генри Джуст / Henry Joost, Эриель Шульман / Ariel Schulman, ужасы, 2012) [HDRip, Дубляж + субтитры] " />

Аплоадер: Админ, дата: 26-12-2013, 01:16, торрент скачан: 359 раз

Понравилась раздача? Посмотрите эти:
  • Паранормальное явление 4 / Paranormal Activity 4 [Unrated] (Генри Джуст / H ...
  • Паранормальное явление 4 / Paranormal Activity 4 (Генри Джуст, ужасы, 2012) ...
  • Паранормальное явление 4 / Paranormal Activity 4 (Генри Джуст, Эриель Шульм ...
  • Паранормальное явление 4 / Paranormal Activity 4 (Генри Джуст, Эриель Шульм ...
  • Паранормальное явление 4 / Paranormal Activity 4 (Генри Джуст, Эриель Шульм ...
  • Паранормальное явление 4 / Paranormal Activity 4 (Генри Джуст, Эриель Шульм ...
  • Паранормальное явление 4 / Paranormal Activity 4 (Генри Джуст, Эриель Шульм ...
  • Паранормальное явление 4 [Театральная версия] / Paranormal Activity 4 [Thea ...
  • Паранормальное явление 2 / Paranormal Activity 2 (Тод «Кип» Уильямс / Tod « ...
  • Паранормальное явление 3 / Paranormal Activity 3 [Theatrical Cut] (Генри Дж ...
  • Паранормальное явление 3 / Paranormal Activity 3 [Theatrical Cut] (Генри Дж ...
  • Паранормальное явление: Ночь в Токио / Paranomaru akutibiti: Dai-2-sho - To ...
  • Паранормальное явление 3 / Paranormal Activity 3 [UNRATED](Генри Джуст, Эр ...
  • Паранормальное явление 4 / Paranormal Activity 4 (Генри Джуст, Эриель Шульм ...
  • Паранормальное явление / Paranormal Activity (Орен Пели,ужасы, триллер, дет ...
  • Паранормальное явление 2 / Paranormal Activity 2 (Тод Уильямс, ужасы, трилл ...
  • Паранормальное явление 2 / Paranormal Activity 2 (Тод Кип Уильямс, Ужасы, 2 ...
  • Паранормальное явление 2 / Paranormal Activity 2 (Тод «Кип» Уильямс, ужасы, ...
  • Паранормальное явление 3 / Paranormal Activity 3 [UNRATED](Генри Джуст, Эр ...
  • Паранормальное явление 3 / Paranormal Activity 3 [UNRATED](Генри Джуст, Эр ...
  • Паранормальное явление 3 / Paranormal Activity 3 (Генри Джуст, Эриель Шульм ...
  • Паранормальное явление 3 / Paranormal Activity 3 [Theatrical Cut] (Генри Дж ...
  • Паранормальное Явление 3 / Paranormal Activity 3 (Генри Джуст, Эриель Шульм ...
  • [Трейлер] Паранормальное явление 4 / Paranormal Activity 4 (Генри Джуст, Эр ...
  • [Трейлер] Паранормальное явление 4 / Paranormal Activity 4 (Генри Джуст, Эр ...
  • Информация
    Посетители, находящиеся в группе Гости, не могут оставлять комментарии к данной публикации.