вход на сайт

Имя пользователя :
Пароль :

Восстановление пароля Регистрация
Обрезание / Excision (Ричард Бейтс мл., ужасы, драма, комедия,2012) [HDRip, Любительский (одноголосый,закадровый), [zamez] + Оригинал (Английский)]
Рейтинг:
(голосов: 1)



[img]{THEME}/images/logopost.png[/img]



Обрезание / Excision

Год выпуска: 2012
Страна: США
Производство: BXR Productions
Жанр: ужасы, драма, комедия

Режиссёр: Ричард Бейтс мл.
В ролях: АннаЛинн МакКорд, Трейси Лордс, Эриель Винтер, Роджер Барт, Джереми Самптер, Джон Уотерс, Малкольм МакДауэлл, Марли Мэтлин, Мэттью Грей Гублер, Рэй Уайз

Перевод: Любительский (одноголосый,закадровый)
Озвучка: [zamez]
Субтитры: Отсутствуют

Описание: История Полин, девушки-подростка, изгоя. Полин одержима бредовыми идеями: насилие, убийства на дорогах, пытки. Естественно, ее мечтания отторгают от девушки и одноклассников, и родителей. Никто не понимает ее, кроме Грейс, ее младшей больной (муковисцидоз) сестры. Полин думает, что вернуть любовь близких ей поможет спасение сестры и для этого Полин решает сделать малышке операцию…


MediaInfo ▼
General
Complete name : C: Excision.2012.L1.HDRip.1400MB.avi
Format : AVI
Format/Info : Audio Video Interleave
Format profile : OpenDML
File size : 1.34 GiB
Duration : 1h 21mn
Overall bit rate : 2 366 Kbps
Writing application : XviD4PSP 6.0 / 53.6.0
Video #0
ID : 0
Format : MPEG-4 Visual
Format profile : Advanced [email protected]
Format settings, BVOP : 1
Format settings, QPel : No
Format settings, GMC : No warppoints
Format settings, Matrix : Default (H.263)
Codec ID : XVID
Codec ID/Hint : XviD
Duration : 1h 21mn
Bit rate : 1 640 Kbps
Width : 720 pixels
Height : 296 pixels
Display aspect ratio : 2.40:1
Frame rate : 23.976 fps
Color space : YUV
Chroma subsampling : 4:2:0
Bit depth : 8 bits
Scan type : Progressive
Compression mode : Lossy
Bits/(Pixel*Frame) : 0.321
Stream size : 953 MiB (69%)
Writing library : XviD 64
Audio #1
ID : 1
Format : MPEG Audio
Format version : Version 1
Format profile : Layer 3
Mode : Joint stereo
Codec ID : 55
Codec ID/Hint : MP3
Duration : 1h 21mn
Bit rate mode : Constant
Bit rate : 256 Kbps
Channel(s) : 2 channels
Sampling rate : 48.0 KHz
Compression mode : Lossy
Stream size : 149 MiB (11%)
Alignment : Aligned on interleaves
Interleave, duration : 24 ms (0.58 video frame)
Writing library : LAME3.98.2
Audio #2
ID : 2
Format : AC-3
Format/Info : Audio
4de543b8a3ed648788b73175dc1dee8546e18c69Обрезание / Excision (Ричард Бейтс мл., ужасы, драма, комедия,2012) [HDRip, Любительский (одноголосый,закадровый), [zamez] + Оригинал (Английский)] Обрезание / Excision (Ричард Бейтс мл., ужасы, драма, комедия,2012) [HDRip, Любительский (одноголосый,закадровый), [zamez] + Оригинал (Английский)] " />

Аплоадер: Админ, дата: 28-11-2012, 15:17, торрент скачан: 359 раз

Понравилась раздача? Посмотрите эти:
  • Выпускник / Commitment (Пак Хон Су, Боевик, драма, мелодрама, 2013) [HDRip, ...
  • Вирус / Flu (Ким Сон Су, Драма, 2013) [HDTVRip, Любительский (двухголосый з ...
  • Мужество / Wymyk (Грег Зглински, драма, 2011) [DVDRip, Любительский (одного ...
  • Берлинское дело / The Berlin File (Рю Сын Ван, Боевик, триллер, драма, 2013 ...
  • 23:59 / 23:59 (Гилберт Чан, Ужасы, 2011) [HDRip, Любительский (одноголосый ...
  • Аномальный вид / Modus Anomali (Джоко Анвар, Ужасы, Триллер, 2012) [BDRip 7 ...
  • Цель Номер Один / Zero Dark Thirty (Кэтрин Бигелоу, боевик, триллер, драма, ...
  • Псы войны / The Dogs of War (Джон Ирвин, боевик, драма, приключения, военны ...
  • Новые парни турбо / New Kids Turbo (Штефен Хаарс, Боевик, комедия, 2010) [H ...
  • Люблю смотреть на девушек / Jaime regarder les filles (Фредерик Луф, драма, ...
  • Репортаж из преисподней / [REC] 2 (Жауме Балагуэро, Пако Пласа, ужасы, трил ...
  • Идеальный Голос / Pitch Perfect (Джейсон Мур, Комедия, музыка, 2012) [BDRip ...
  • Захватывающие рассказы Шрэкa / Shreks Thrilling Tales (Майк Митчел, Мультфи ...
  • Tank Feat. T.I. & Kris Stephens / Compliments [2012, RnB,Hip-Hop, HDRip]
  • Обрезание / Excision (Ричард Бейтс мл., Ужасы, драма, комедия,2012) [HDRip, ...
  • Oдержимость Эмми Эванс / La posesión de Emma Evans (Мануэль Карбальо, ужасы ...
  • Скуби-Ду: Нападение Пантазаура / Scooby-Doo! Legend of the Phantosaur (Дугл ...
  • Неприкасаемые / Intouchables (Оливье Накаш, Эрик Толедано, Драма, 2011) [BD ...
  • Романтики / The Romantics (Галт Нидерхоффер, Драма, мелодрама, комедия, 201 ...
  • Ангел зла / Evil Angel (Ричард Дачер, ужасы, триллер, 2009) [HDRip, Професс ...
  • Полусвет / Half Light (Крэйг Розенберг, Ужасы, триллер, драма, детектив, 20 ...
  • Товарищеский матч 2012 / АмаЗулу (ЮАР) - Манчестер Юнайтед (Англия) / MU TV ...
  • Искажение / Skew (Сейв Челенз, ужасы, триллер, 2011) [HDRip, Профессиональн ...
  • Вампирши / Vamps (Эми Хекерлинг,мелодрама, комедия,2012) [HDRip, Любительск ...
  • Ничего, кроме правды / Nothing But the Truth (Род Лури, триллер, драма, 200 ...
  • Информация
    Посетители, находящиеся в группе Гости, не могут оставлять комментарии к данной публикации.