вход на сайт

Имя пользователя :
Пароль :

Восстановление пароля Регистрация
Лихорадка (Режиссерская версия)/ Cabin Fever (Элай Рот, ужасы, 2002) [BDRip, Дубляж]
Рейтинг:
(голосов: 1)



[img]{THEME}/images/logopost.png[/img]



Лихорадка (Режиссерская версия)/ Cabin Fever

Год выпуска: 2002
Страна: США
Производство: Black Sky Entertainment, Cabin Pictures, Deer Path Films
Жанр: ужасы

Режиссёр: Элай Рот
В ролях: Райдер Стронг, Джордан Лэдд, Джеймс ДеБелло, Серина Винсент, Джои Керн, Ари Вервин, Роберт Харрис, Ричард Бун, Тим Парати, Данте Уокер, Джузеппе Эндрюс

Перевод: (Дубляж)
Субтитры: Отсутствуют

Описание: После тяжелого учебного года пятеро студентов решают провести пару дней в маленькой лесной хижине. Несмотря на странное поведение местных жителей, они намерены как следует расслабиться, но внезапно их планы нарушает встреча с бродягой с ужасной, будто бы гниющей кожей. Ребятам удается отделаться от несчастного, но они не знают, что он успел отравить местный водоем, и неизвестная инфекция уже распространяется по округе. Кто из них станет первой жертвой страшного вируса, пожирающего человеческую плоть?



Качество: BDRip | Сэмпл
Продолжительность: 01:37:48 час.

Формат: AVI
Видео кодек: XviD
Аудио кодек: MP3
Видео: 688x288 (2.39:1), 23.976 fps, XviD build 50 ~925 kbps avg, 0.20 bit/pixel
Аудио : 48 kHz, MPEG Layer 3, 2 ch, ~128.00 kbps avg [Дубляж]

MediaInfo ▼
General
Complete name : C:Лихорадка Lihoradka.BDRip.2002.avi
Format : AVI
Format/Info : Audio Video Interleave
File size : 744 MiB
Duration : 1h 37mn
Overall bit rate : 1 063 Kbps
Writing application : VirtualDubMod 1.5.10.2 (build 2540/release)
Writing library : VirtualDubMod build 2540/release
Video #0
ID : 0
Format : MPEG-4 Visual
Format profile : Advanced
Format settings, BVOP : 2
Format settings, QPel : No
Format settings, GMC : No warppoints
Format settings, Matrix : Custom
Codec ID : XVID
Codec ID/Hint : XviD
Duration : 1h 37mn
Bit rate : 926 Kbps
Width : 688 pixels
Height : 288 pixels
Display aspect ratio : 2.40:1
Frame rate : 23.976 fps
Color space : YUV
Chroma subsampling : 4:2:0
Bit depth : 8 bits
Scan type : Progressive
Compression mode : Lossy
Bits/(Pixel*Frame) : 0.195
Stream size : 648 MiB (87%)
Writing library : XviD 1.2.1 (UTC 2008-12-04)
Audio #1
ID : 1
Format : MPEG Audio
Format version : Version 1
Format profile : Layer 3
Codec ID : 55
Codec ID/Hint : MP3
Duration : 1h 37mn
Bit rate mode : Constant
Bit rate : 128 Kbps
Channel(s) : 2 channels
Sampling rate : 48.0 KHz
Compression mode : Lossy
Stream size : 89.5 MiB (12%)
5529ab5f202a5288ac6560470dddb32301eb29a9Лихорадка (Режиссерская версия)/ Cabin Fever (Элай Рот, ужасы, 2002) [BDRip, Дубляж] Лихорадка (Режиссерская версия)/ Cabin Fever (Элай Рот, ужасы, 2002) [BDRip, Дубляж] " />

Аплоадер: Админ, дата: 23-11-2012, 21:28, торрент скачан: 359 раз

Понравилась раздача? Посмотрите эти:
  • Лихорадка / Cabin Fever [Режиссёрская версия / Unrated Directors Cut] (Элай ...
  • Непристойная комедия / InAPPropriate Comedy (Винс Оффер, комедия, 2013) [DV ...
  • Война миров Z [Театральная версия] / World War Z [Theatrical Cut] (Марк Фор ...
  • Укушенный (Полная версия) / Bitten (Unrated) (Харви Глейзер , Ужасы, комеди ...
  • Полуночный экспресс [Режиссерская версия] / The Midnight Meat Train [Unrate ...
  • Восьмиугольник. Лучшие нокауты 1993-2002 / UFC Ultimate Knockouts [2002, MM ...
  • Скуби-Ду! Маска Синего Сокола / Scooby-Doo! Mask Of The Blue Falcon (Оливье ...
  • Лучший стрелок / Top Gun (Тони Скотт, боевик, драма, мелодрама, 1986) [BDRi ...
  • Последние каникулы 2 / Лихорадка : Весеннее обострение / Cabin Fever 2: Spr ...
  • Хижина в лесу / The Cabin in the Woods (Дрю Годдард, Ужасы, фантастика, три ...
  • Лихорадка / Cabin Fever (Элай Рот, Ужасы, 2002) [BDRip 1080p, Дублированный ...
  • Чемпионат Европы 2012 / Группа D / 1-й тур / Украина - Швеция / Спорт 1 [11 ...
  • Атака пауков / Eight Legged Freaks (Эллори Элкайем, ужасы, фантастика, боев ...
  • Страх / Fear (Джеймс Фоули, ужасы, триллер, драма, 1996) [BDRip, Дубляж]
  • Лихорадка / Cabin Fever (Элай Рот , ужасы, 2002) [HDRip, Дублированный]
  • Планета сокровищ / Treasure Planet (Рон Клементс, Джон Маскер, Мультфильм, ...
  • Глушь / Resurrection County (Matt Zettell, ужасы, триллер, 2008) [DVDRip, П ...
  • Искажение / Skew (Сейв Челенз, ужасы, триллер, 2011) [HDRip, Профессиональн ...
  • Симона / S1m0ne (Эндрю Никкол, фантастика, фэнтези, драма, комедия, 2002) [ ...
  • Поймай меня, если сможешь / Catch Me If You Can (Стивен Спилберг, Драма, ко ...
  • Информация
    Посетители, находящиеся в группе Гости, не могут оставлять комментарии к данной публикации.