вход на сайт

Имя пользователя :
Пароль :

Восстановление пароля Регистрация
Рука-убийца / Idle Hands (Родмен Флендер,ужасы, триллер, комедия, 1999) [HDTVRip, профессиональный (полное дублирование)]
Рейтинг:
(голосов: 1)



[img]{THEME}/images/logopost.png[/img]



Рука-убийца / Idle Hands

Год выпуска: 1999
Страна: США
Производство: Columbia Pictures Corporation
Жанр: ужасы, триллер, комедия

Режиссёр: Родмен Флендер
В ролях: Девон Сава, Сет Грин, Элден Хенсон, Джессика Альба, Вивика А. Фокс, Кристофер Харт, Джек Ноузуорти, Кэти Райт, Шон Уэйлен, Николас Сэдлер, Фред Уиллард, Конни Рэй

Перевод: профессиональный (полное дублирование)
Субтитры: отсутствуют

Описание: Как-то утром самый ленивый подросток в Америке обнаруживает трупы родителей с оторванными головами и замечает, что его рука стала подозрительно самостоятельной! Оказывается, в него вселились древние силы зла



Качество: HDTVRip | Сэмпл
Продолжительность: 01:32:04 час.

Формат: AVI
Видео кодек: XviD
Аудио кодек: MP3
Видео: 624x352 (1.77:1), 23.976 fps, XviD build 65 ~993 kbps avg, 0.19 bit/pixel
Аудио: 48 kHz, MPEG Layer 3, 2 ch, ~128.00 kbps avg
MediaInfo ▼
General
Complete name : C:uka-ubyica.1999.hdtvrip.745mb.avi
Format : AVI
Format/Info : Audio Video Interleave
File size : 745 MiB
Duration : 1h 32mn
Overall bit rate : 1 131 Kbps
Writing application : VirtualDubMod 1.5.10.3 | www.virtualdub-fr.org || (build 2550/release)
Writing library : VirtualDubMod build 2550/release
Video #0
ID : 0
Format : MPEG-4 Visual
Format profile : Advanced
Format settings, BVOP : 1
Format settings, QPel : No
Format settings, GMC : No warppoints
Format settings, Matrix : Custom
Codec ID : XVID
Codec ID/Hint : XviD
Duration : 1h 32mn
Bit rate : 994 Kbps
Width : 624 pixels
Height : 352 pixels
Display aspect ratio : 16:9
Frame rate : 23.976 fps
Color space : YUV
Chroma subsampling : 4:2:0
Bit depth : 8 bits
Scan type : Progressive
Compression mode : Lossy
Bits/(Pixel*Frame) : 0.189
Stream size : 655 MiB (88%)
Writing library : XviD 65
Audio #1
ID : 1
Format : MPEG Audio
Format version : Version 1
Format profile : Layer 3
Codec ID : 55
Codec ID/Hint : MP3
Duration : 1h 32mn
Bit rate mode : Constant
Bit rate : 128 Kbps
Channel(s) : 2 channels
Sampling rate : 48.0 KHz
Compression mode : Lossy
Stream size : 84.3 MiB (11%)
Alignment : Aligned on interleaves
Interleave, duration : 42 ms (1.00 video frame)
Interleave, preload duration : 504 ms
Writing library : LAME3.98
c84fa8a868845a692b5ca9eefef7425021877110Рука-убийца / Idle Hands (Родмен Флендер,ужасы, триллер, комедия, 1999) [HDTVRip, профессиональный (полное дублирование)] Рука-убийца / Idle Hands (Родмен Флендер,ужасы, триллер, комедия, 1999) [HDTVRip, профессиональный (полное дублирование)] " />

Аплоадер: Админ, дата: 23-11-2012, 13:54, торрент скачан: 359 раз

Понравилась раздача? Посмотрите эти:
  • Сонная Лощина / Sleepy Hollow (Тим Бёртон, Ужасы, фэнтези, триллер, детекти ...
  • Вирус / Flu (Ким Сон Су, Драма, 2013) [HDTVRip, Любительский (двухголосый з ...
  • Рука-убийца / Idle Hands (Родмен Флендер, Ужасы, триллер, комедия, 1999) [B ...
  • Райское озеро / Eden Lake (Джеймс Уоткинс, Ужасы, Триллер, 2008) [BDRip, П ...
  • Mourinho / Моуриньо / ITV4 [ Футбол, 2012, AVI/XviD, HDTVRip/400p, EN]
  • Руины / The Ruins (Картер Смит, Ужасы, Триллер, 2008) [HDRip, Профессиональ ...
  • Берлинское дело / The Berlin File (Рю Сын Ван, Боевик, триллер, драма, 2013 ...
  • Верный выстрел / Certain Prey (Крис Джеролмо, Триллер, Драма, Криминал, 201 ...
  • Без всего / Sin ella (Джордже Колон, Мелодрама, 2010) [HDTVRip , Профессион ...
  • Коллекционер 2 / The Collection (Маркус Данстэн, ужасы, боевик, триллер , 2 ...
  • Чемпионат Европы 2012 / Группа D / 1-й тур / Украина - Швеция / Спорт 1 [11 ...
  • Атака пауков / Eight Legged Freaks (Эллори Элкайем, ужасы, фантастика, боев ...
  • Страх / Fear (Джеймс Фоули, ужасы, триллер, драма, 1996) [BDRip, Дубляж]
  • Неделя в NBA с В.Гомельским / НТВ+ [28.06.2011, SD, XviD, RU, SAT]
  • 11 11 11 / 11-11-11 (Даррен Линн Боусман, ужасы, триллер, 2011) [HDRip, Про ...
  • Падший / Fallen ( Грегори Хоблит, триллер, драма, криминал, 1998) [HDTVRip, ...
  • Романтики / The Romantics (Галт Нидерхоффер, Драма, мелодрама, комедия, 201 ...
  • Чемпионат Европы 2012 / Группа B / 1-й тур / Германия - Португалия / Спорт ...
  • Рука-убийца / Idle Hands (Родмэн Флендер, Ужасы,триллер,комедия, 1999) [DVD ...
  • Глушь / Resurrection County (Matt Zettell, ужасы, триллер, 2008) [DVDRip, П ...
  • Искажение / Skew (Сейв Челенз, ужасы, триллер, 2011) [HDRip, Профессиональн ...
  • Татуировщик / The Tattooist (Питер Бюргер, ужасы, триллер, 2007) [HDRip, Пр ...
  • Ничего, кроме правды / Nothing But the Truth (Род Лури, триллер, драма, 200 ...
  • Байки из склепа: Кровавый бордель / Bordello of Blood (Гилберт Адлер, ужасы ...
  • Крузо / Crusoe (Калеб Дешанель, Драма, 1988) [HDTVRip, Профессиональный (дв ...
  • Информация
    Посетители, находящиеся в группе Гости, не могут оставлять комментарии к данной публикации.