вход на сайт

Имя пользователя :
Пароль :

Восстановление пароля Регистрация
Татуировщик / The Tattooist (Питер Бюргер, ужасы, триллер, 2007) [HDRip, Профессиональный (многоголосый закадровый)]
Рейтинг:
(голосов: 1)



[img]{THEME}/images/logopost.png[/img]



Татуировщик / The Tattooist

Год выпуска: 2007
Страна: Нидерланды, Новая Зеландия, Сингапур
Производство: Eyeworks Touchdown, Mediacorp Raintree Pictures, New Zealand Film Commission
Жанр: ужасы, триллер

Режиссёр: Питер Бюргер
В ролях: Джейсон Бер, Миа Блейк, Дэвид Фейн, Робби Магасива, Каролин Чон, Майкл Херст, Нэтаниэл Лис, Джон Бах, Тимоти Бальм, Чен Бангжи

Перевод: Профессиональный (многоголосый, закадровый)
Субтитры: отсутствуют

Описание: Сюжет рассказывает историю татуировщика, которого завораживают самоанские традиции украшения человеческого кожного покрова. Рьяное желание овладеть секретами мастерства сталкивает протагониста с местным мистицизмом и выпущенным на свободу смертельно опасным духом…



Качество: HDRip (исх. BDRip 720p) | Сэмпл
Продолжительность: 01:31:02 час.

Формат: AVI
Видео кодек: XviD
Аудио кодек: MP3
Видео: 672x288 (2.33:1), 23.976 fps, XviD build 63 ~1002 kbps avg, 0.22 bit/pixel
Аудио: 48 kHz, MPEG Layer 3, 2 ch, ~128.00 kbps avg
MediaInfo ▼
General
Complete name : C:The.Tattooist.2007.hdrip_[745].avi
Format : AVI
Format/Info : Audio Video Interleave
File size : 742 MiB
Duration : 1h 31mn
Overall bit rate : 1 140 Kbps
Writing application : VirtualDubMod 1.5.10.3 | www.virtualdub-fr.org || (build 2550/release)
Writing library : VirtualDubMod build 2550/release
Video #0
ID : 0
Format : MPEG-4 Visual
Format profile : Advanced
Format settings, BVOP : 1
Format settings, QPel : No
Format settings, GMC : No warppoints
Format settings, Matrix : Custom
Codec ID : XVID
Codec ID/Hint : XviD
Duration : 1h 31mn
Bit rate : 1 003 Kbps
Width : 672 pixels
Height : 288 pixels
Display aspect ratio : 2.35:1
Frame rate : 23.976 fps
Color space : YUV
Chroma subsampling : 4:2:0
Bit depth : 8 bits
Scan type : Progressive
Compression mode : Lossy
Bits/(Pixel*Frame) : 0.216
Stream size : 653 MiB (88%)
Writing library : XviD 63
Audio #1
ID : 1
Format : MPEG Audio
Format version : Version 1
Format profile : Layer 3
Codec ID : 55
Codec ID/Hint : MP3
Duration : 1h 31mn
Bit rate mode : Constant
Bit rate : 128 Kbps
Channel(s) : 2 channels
Sampling rate : 48.0 KHz
Compression mode : Lossy
Delay relative to video : 72ms
Stream size : 83.3 MiB (11%)
Alignment : Align
f5bd8b5fa97cf9b767b3411b46c80a1dd6ef3e13Татуировщик / The Tattooist (Питер Бюргер, ужасы, триллер, 2007) [HDRip, Профессиональный (многоголосый закадровый)] Татуировщик / The Tattooist (Питер Бюргер, ужасы, триллер, 2007) [HDRip, Профессиональный (многоголосый закадровый)] " />

Аплоадер: Админ, дата: 18-11-2012, 14:03, торрент скачан: 359 раз

Понравилась раздача? Посмотрите эти:
  • Обнаженный страх / Naked Fear (Том Эберхардт, ужасы, триллер, 2007) [HDRip, ...
  • Погнали! / Getaway (Кортни Соломон, Боевик,Криминал, 2013) [HDRip, Професси ...
  • Финал / The Final (Джои Стюарт, ужасы, триллер, драма, 2010) [HDRip, Профес ...
  • Полусвет / Half Light (Крэйг Розенберг, ужасы, триллер, драма, детектив, 20 ...
  • Вторжение динозавра / Gwoemul (Пон Чжун Хо, Ужасы, Фантастика, Триллер, Дра ...
  • Ночь тамплиера / Night of the Templar (Пол Сэмпсон, Ужасы, фантастика, боев ...
  • Всадник / The Horseman (Стивен Кастриссиос, Триллер, Криминал, 2008) [HDRi ...
  • 12 раундов: Перезагрузка / 12 Rounds: Reloaded (Роэль Рейн, Боевик, 2013) [ ...
  • Всадник / The Horseman (Стивен Кастриссиос, Триллер, Криминал, 2008) [HDRi ...
  • Татуировщик / The Tattooist (Питер Бюргер, Ужасы, Триллер, 2007) [HDRip, Пр ...
  • Проклятая / The New Daughter (Луисо Бердейо, Ужасы, Триллер, 2009) [DVDRip, ...
  • Укушенный (Полная версия) / Bitten (Unrated) (Харви Глейзер , Ужасы, комеди ...
  • Битва в пустыне / The Objective (Дэниэл Мирик, ужасы, фантастика, триллер, ...
  • Военные игры / War Games: At the End of the Day(Козимо Алема, Триллер, Ужас ...
  • Романтики / The Romantics (Галт Нидерхоффер, Драма, мелодрама, комедия, 201 ...
  • Полусвет / Half Light (Крэйг Розенберг, Ужасы, триллер, драма, детектив, 20 ...
  • Пропавшие / Gone (Ринган Ледвидж, ужасы, триллер, драма, 2007) [DVDRip, Пр ...
  • Глушь / Resurrection County (Matt Zettell, ужасы, триллер, 2008) [DVDRip, П ...
  • Искажение / Skew (Сейв Челенз, ужасы, триллер, 2011) [HDRip, Профессиональн ...
  • Ничего, кроме правды / Nothing But the Truth (Род Лури, триллер, драма, 200 ...
  • Информация
    Посетители, находящиеся в группе Гости, не могут оставлять комментарии к данной публикации.