вход на сайт

Имя пользователя :
Пароль :

Восстановление пароля Регистрация
Застенок / The Jailhouse (Билли Льюис, Ужасы, Триллер, Детектив, 2009) [DVDRip, Профессиональный (многоголосый, закадровый)]
Рейтинг:
(голосов: 1)



[img]{THEME}/images/logopost.png[/img]



Застенок / The Jailhouse

Год выпуска: 2009
Страна: США
Производство: 3L Productions, Galvanized Films
Жанр: Ужасы, Триллер, Детектив
Режиссер: Билли Льюис
В ролях: Кен Агиляр, Сири Барук, Даррен Далтон, Билл Джордж, С. Томас Хауэлл, Томми Линдси, Филлип Трой Линджер, Брэндон Люк, Брайан Махони

Перевод: Профессиональный (многоголосый) [лицензия]
Субтитры: нет

Описание: Получив место шерифа, Сет Делрей с семьей были уверены, что наконец сбылась их мечта. Уютный маленький городок — просто рай для их небольшого семейства. Заселившись в предназначенный им дом, супруги были абсолютно счастливы. Но вскоре, случившийся в местной тюрьме пожар, разрушил их недолгую идиллию. Спасшихся заключенных, можно было разместить только в их доме. И вместе с ними, в дом переехали и призраки прошлого. Страшная трагедия, разразившаяся более 30 лет назад, вновь может потрясти маленький городок…



Качество: DVDRip
Продолжительность: 01:22:30 час.

Формат: AVI
Видео кодек: XviD
Аудио кодек: AС3
Видео: 720x304 (2,35:1), 25 fps,XviD 1.2.1 ~1917 kbps avg, 0.351 bit/pixel
Аудио: 48 kHz, Audio Coding 3, 6 ch, ~448 kbps avg

"MediaInfo" ▼Общее
Полное имя : Z:Torrentsastenok.2009.DVDRip.avi
Формат : AVI
Формат/Информация : Audio Video Interleave
Размер файла : 1,37 Гбайт
Продолжительность : 1 ч. 22 м.
Общий поток : 2376 Кбит/сек
Название фильма : Zastenok.2009.DVDRip
Программа кодирования : VirtualDubModRus 1.5.10.2 (build 2542/release)

Видео
Идентификатор : 0
Формат : MPEG-4 Visual
Профиль формата : Advanced [email protected]
Параметр BVOP формата : 2
Параметр QPel формата : Нет
Параметр GMC формата : Без точки перехода
Параметр матрицы формата : Выборочная
Идентификатор кодека : XVID
Идентификатор кодека/Подсказка : XviD
Продолжительность : 1 ч. 22 м.
Битрейт : 1918 Кбит/сек
Ширина : 720 пикселей
Высота : 304 пикселя
Соотношение сторон : 2,35:1
Частота кадров : 25,000 кадров/сек
Цветовое пространство : YUV
Субдискретизация насыщенности : 4:2:0
Битовая глубина : 8 бит
Тип развёртки : Прогрессивная
Метод сжатия : С потерями
Бит/(Пиксели*Кадры) : 0.351
Размер потока : 1,11 Гбайт (81%)
Библиотека кодирования : XviD 1.2.1 (UTC 2008-12-04)

Аудио
Идентификатор : 1
Формат : AC-3
Формат/Информация : Audio Coding 3
Расширение режима : CM (complete main)
Параметр Endianness формата : Big
Идентификатор кодека : 2000
Продолжительность : 1 ч. 22 м.
Вид битрейта : Постоянный
Битрейт : 448 Кбит/сек
Каналы : 6 каналов
Расположение каналов : Front: L C R, Side: L R, LFE
Частота : 48,0 КГц
Битовая глубина : 16 бит
Метод сжатия : С потерями
Размер потока : 264 Мбайт (19%)
Выравнивание : Разделение по промежуткам
Продолжительность промежутка : 40 мс. (1,00 видеокадр)
Время предзагрузки промежутка : 500 мс.


2e94fe53c38de9c6d84484f2a4e2e4b65e9032e7Застенок / The Jailhouse (Билли Льюис, Ужасы, Триллер, Детектив, 2009) [DVDRip, Профессиональный (многоголосый, закадровый)] Застенок / The Jailhouse (Билли Льюис, Ужасы, Триллер, Детектив, 2009) [DVDRip, Профессиональный (многоголосый, закадровый)] " />

Аплоадер: Админ, дата: 25-10-2012, 20:55, торрент скачан: 359 раз

Понравилась раздача? Посмотрите эти:
  • Одноклассники 2 / Grown Ups 2 (Деннис Дуган, Комедия, 2013) [BDRip, Професс ...
  • Кровью и потом: Анаболики / Pain & Gain (Майкл Бэй, криминал, комедия, трил ...
  • Слежка / The Letter (Джей Ананья, Триллер, драма, 2012) [DVDRip, Профессион ...
  • Миллион для чайников / The Brass Teapot (Рамаа Мосли, Фэнтези, триллер, ком ...
  • Миллион для чайников / The Brass Teapot (Рамаа Мосли, Фэнтези, триллер, ком ...
  • Астрал на улице Арлетт / 388 Arletta Avenue (Рэндолл Коул, Триллер, 2011) [ ...
  • Чужеродное вторжение / Alien Raiders (Бен Рок, Фантастика, триллер, ужасы, ...
  • Застенок / The Jailhouse (Билли Льюис, Ужасы, Триллер, Детектив, 2009) [BDR ...
  • Глушь / Resurrection County (Матт Зеттел, Ужасы,триллер, 2008) [DVDRip, Про ...
  • Жил-был тигр / Ek Tha Tiger (Кабир Кхан, боевик, триллер , 2012) [ HDRip, ...
  • Легенда о МорДу / The Legend of MorDu (Брайан Ларсен, Короткометражный, ска ...
  • Отбой / Taps (Харольд Беккер, Драма, 1981) [DVDRip, Профессиональный (много ...
  • Путешествие на дно моря / Voyage to the Bottom of the Sea (Ирвин Аллен / I ...
  • Кажется, я люблю свою жену / I Think I Love My Wife (Крис Рок, Драма, мелод ...
  • Покорить высоту / Take It to the Limit (Сэм Кит / Sam Kieth, семейный, 2000 ...
  • У дьявола нет лица / Plasterhead (Кевин Хиггинс / Kevin Higgins, ужасы, три ...
  • Боец из трущоб / Gutter King (Кейт Алан Моррис / Keith Alan Morris, боевик, ...
  • Кошмар / Nightmare / Qing Yan (Херман Яу, ужасы, триллер, 2012) [DVDRip, Лю ...
  • Детский душ / Baby Shower (Pablo Illanes, Ужасы, 2011) [DVDRip, Любительски ...
  • Отзвуки эха 2: Возвращение / Stir of Echoes: The Homecoming (Эрни Барбараш, ...
  • Пожирая живых / Ночь зомби / Zombie Night (Дэвид Дж. Фрэнсис, Ужасы, комеди ...
  • Грэйс / Grace (Паул Солет, ужасы, триллер, драма, 2009) [BDRip, Профессиона ...
  • Жизнь за гранью / After.Life (Агнешка Войтович-Восло, Ужасы, триллер, драм ...
  • Глаз шторма / The Eye of the Storm (Фред Скеписи, Драма, 2011) [HDRip, Проф ...
  • Сдохни, Джон Такер / John Tucker Must Die (Бетти Томас, мелодрама, комедия, ...
  • Информация
    Посетители, находящиеся в группе Гости, не могут оставлять комментарии к данной публикации.