вход на сайт

Имя пользователя :
Пароль :

Восстановление пароля Регистрация
Жизнь за гранью / After.Life (Агнешка Войтович-Восло, Ужасы, триллер, драма, детектив, 2009) [BDRip, Дубляж, Оригинал]
Рейтинг:
(голосов: 1)



[img]{THEME}/images/logopost.png[/img]



Жизнь за гранью / After.Life
«Дикий страх... сильнее боли!»


Год выпуска: 2009
Страна: США
Производство: Harbor Light Entertainment, Lleuju Productions, Plum Pictures
Жанр: Ужасы, триллер, драма, детектив

Режиссёр: Агнешка Войтович-Восло
В ролях: Кристина Риччи, Лиам Нисон, Джастин Лонг, Чандлер Кентербери, Джош Чарльз, Селия Уэстон, Шулер Хенсли, Лорел Брайс, Лори Коул, Майкл Джеррард

Перевод: Дубляж, Оригинал (английский)
Субтитры: Отсутствуют

Описание: Поссорившись со своим женихом Полом Колманом, Анна Тэйлор попадает в автомобильную аварию и приходит в себя в… похоронном бюро. Элиот Дикон уверяет Анну, что она мертва и что ему необходимо подготовить тело к церемонии погребения. Элиот поясняет, что обладает редким даром — способностью общаться с недавно умершими людьми, чья душа ожидает отхода в иной мир. Однако мисс Тэйлор не верит ему, полагая, что по-прежнему жива.



Релиз от:
Автор рипа: Orbit

Качество: BDRip
Продолжительность: 01:42:53 час.

Формат: AVI
Видео кодек: Xvid
Аудио кодек: AC3
Видео: 704x288 (2.44:1), 23.976 fps, XviD build 57 ~2197 kbps avg, 0.43 bit/pixel
Аудио #1: 48 kHz, AC3 Dolby Digital, 3/2 (L,C,R,l,r) + LFE ch, ~384.00 kbps avg [Дубляж]
Аудио #2: 48 kHz, AC3 Dolby Digital, 3/2 (L,C,R,l,r) + LFE ch, ~448.00 kbps avg [Оригинал]

Дата премьеры (мир): 7 ноября 2009
Дата премьеры (РФ): 2 декабря 2010, «Люксор»

"MediaInfo" ▼Общее
Полное имя : C:hizn.za.granyu.2009.DUAL.BDRip.XviD.AC3.-HQCLUB.avi
Формат : AVI
Формат/Информация : Audio Video Interleave
Профиль формата : OpenDML
Размер файла : 2,18 Гбайт
Продолжительность : 1 ч. 42 м.
Общий поток : 3036 Кбит/сек
Название фильма : Zhizn.za.granyu.2009.DUAL.BDRip.XviD.AC3
Режиссёр : Orbit
Программа кодирования : VirtualDubMod 1.5.10.2 (build 2542/release)
Примечание : 30.01.2011

Видео
Идентификатор : 0
Формат : MPEG-4 Visual
Профиль формата : Advanced [email protected]
Параметр BVOP формата : 1
Параметр QPel формата : Нет
Параметр GMC формата : Без точки перехода
Параметр матрицы формата : Выборочная
Идентификатор кодека : XVID
Идентификатор кодека/Подсказка : XviD
Продолжительность : 1 ч. 42 м.
Битрейт : 2187 Кбит/сек
Ширина : 704 пикселя
Высота : 288 пикселей
Соотношение сторон : 2,40:1
Частота кадров : 23,976 кадра/сек
Цветовое пространство : YUV
Субдискретизация насыщенности : 4:2:0
Битовая глубина : 8 бит
Тип развёртки : Прогрессивная
Метод сжатия : С потерями
Бит/(Пиксели*Кадры) : 0.450
Размер потока : 1,57 Гбайт (72%)
Библиотека кодирования : XviD 57

Аудио #1
Идентификатор : 1
Формат : AC-3
Формат/Информация : Audio Coding 3
Расширение режима : CM (complete main)
Параметр Endianness формата : Big
Идентификатор кодека : 2000
Продолжительность : 1 ч. 42 м.
Вид битрейта : Постоянный
Битрейт : 384 Кбит/сек
Каналы : 6 каналов
Расположение каналов : Front: L C R, Side: L R, LFE
Частота : 48,0 КГц
Битовая глубина : 16 бит
Метод сжатия : С потерями
Размер потока : 283 Мбайт (13%)
Выравнивание : Разделение по промежуткам
Продолжительность промежутка : 42 мс. (1,00 видеокадр)
Время предзагрузки промежутка : 500 мс.

Аудио #2
Идентификатор : 2
Формат : AC-3
Формат/Информация : Audio Coding 3
Расширение режима : CM (complete main)
Параметр Endianness формата : Big
Идентификатор кодека : 2000
Продолжительность : 1 ч. 42 м.
Вид битрейта : Постоянный
Битрейт : 448 Кбит/сек
Каналы : 6 каналов
Расположение каналов : Front: L C R, Side: L R, LFE
Частота : 48,0 КГц
Битовая глубина : 16 бит
Метод сжатия : С потерями
Размер потока : 330 Мбайт (15%)
Выравнивание : Разделение по промежуткам
Продолжительность промежутка : 42 мс. (1,00 видеокадр)
Время предзагрузки промежутка : 500 мс.





4277001e999d0747c020a792a99ac32f55e1334eЖизнь за гранью / After.Life (Агнешка Войтович-Восло, Ужасы, триллер, драма, детектив, 2009) [BDRip, Дубляж, Оригинал] Жизнь за гранью / After.Life (Агнешка Войтович-Восло, Ужасы, триллер, драма, детектив, 2009) [BDRip, Дубляж, Оригинал] " />

Аплоадер: Админ, дата: 21-10-2012, 16:33, торрент скачан: 359 раз

Понравилась раздача? Посмотрите эти:
  • Бойфренд из будущего / About Time (Ричард Кёртис, Фантастика, драма, комеди ...
  • Одноклассники 2 / Grown Ups 2 (Деннис Дуган, Комедия, 2013) [BDRip, Професс ...
  • Кровью и потом: Анаболики / Pain & Gain (Майкл Бэй, криминал, комедия, трил ...
  • Миллион для чайников / The Brass Teapot (Рамаа Мосли, Фэнтези, триллер, ком ...
  • Астрал на улице Арлетт / 388 Arletta Avenue (Рэндолл Коул, Триллер, 2011) [ ...
  • Глушь / Resurrection County (Матт Зеттел, Ужасы,триллер, 2008) [DVDRip, Про ...
  • Жил-был тигр / Ek Tha Tiger (Кабир Кхан, боевик, триллер , 2012) [ HDRip, ...
  • Легенда о МорДу / The Legend of MorDu (Брайан Ларсен, Короткометражный, ска ...
  • Путешествие на дно моря / Voyage to the Bottom of the Sea (Ирвин Аллен / I ...
  • Кажется, я люблю свою жену / I Think I Love My Wife (Крис Рок, Драма, мелод ...
  • Боец из трущоб / Gutter King (Кейт Алан Моррис / Keith Alan Morris, боевик, ...
  • Кошмар / Nightmare / Qing Yan (Херман Яу, ужасы, триллер, 2012) [DVDRip, Лю ...
  • Жизнь за гранью / After.Life (Агнешка Войтович-Восло / Agnieszka Wojtowicz- ...
  • Жизнь за гранью / After.Life (Агнешка Войтович-Восло / Agnieszka Wojtowicz- ...
  • Жизнь за гранью / After.Life (Агнешка Войтович-Восло, триллер, драма, детек ...
  • Жизнь за гранью / After.Life (Агнешка Войтович-Восло, триллер, драма, детек ...
  • Жизнь за гранью / After.Life (Агнешка Войтович-Восло, триллер, драма, детек ...
  • Жизнь за гранью / After.Life (Агнешка Войтович-Восло, триллер, драма, детек ...
  • Приключения Тинтина: Тайна Единорога / The Adventures of Tintin (Стивен Спи ...
  • Грэйс / Grace (Паул Солет, ужасы, триллер, драма, 2009) [BDRip, Профессиона ...
  • Гениальный папа / Father of Invention (Трент Купер, Драма, комедия, 2010) [ ...
  • Застенок / The Jailhouse (Билли Льюис, Ужасы, Триллер, Детектив, 2009) [DV ...
  • Глаз шторма / The Eye of the Storm (Фред Скеписи, Драма, 2011) [HDRip, Проф ...
  • Шаг вперед 4 / Step Up Revolution (Скотт Спир, Драма, мелодрама, музыка, 20 ...
  • Сдохни, Джон Такер / John Tucker Must Die (Бетти Томас, мелодрама, комедия, ...
  • Информация
    Посетители, находящиеся в группе Гости, не могут оставлять комментарии к данной публикации.