вход на сайт

Имя пользователя :
Пароль :

Восстановление пароля Регистрация
Грэйс / Grace (Паул Солет, ужасы, триллер, драма, 2009) [BDRip, Профессиональный (двухголосый, закадровый) + Оригинал]
Рейтинг:
(голосов: 1)



[img]{THEME}/images/logopost.png[/img]



Грэйс / Grace

Год выпуска: 2009
Страна: США
Производство: ArieScope Pictures, Dark Eye Entertainment, Leomax Entertainment
Жанр: Ужасы, триллер, драма

Режиссёр: Паул Солет
В ролях: Джордан Лэдд, Стефен Парк, Габриель Роз, Серж Уд, Саманта Феррис, Kate Herriot, Трой Ског, Малкольм Стюарт, Джефф Стоун, Джэми Стефенсон

Перевод: Профессиональный (двухголосый, закадровый) + Оригинал
Субтитры: Нет

Описание: Семейная пара, Мэделайн и Майкл Матесон в течение многих лет безуспешно пытается завести ребенка, и вот наконец ей удается забеременеть и выносить плод семь с половиной месяцев. Увы, вскоре после этого происходит ужасный несчастный случай, в результате которого гибнут Майкл и — нерожденный еще младенец. Мэделайн все равно решает рожать, пускай даже и мертвый плод. Спустя две недели она получает свое мертвое дитя. И вот тут начинается самое страшное.

Ребенок — не совсем мертв! Мать возвращает его к жизни и нарекает ребенка именем Грейс (в переводе с английского — «Изящество»). Мэделайн забирает дитя к себе в дом, но тут младенцу становится хуже — выпадают волосы, съеживается кожа… Не доверяя традиционной медицине, Мэделайн вновь кормит ребенка грудью — но сама неожиданно падает в обморок. Мать понимает, что Грейс голодна, но сама она кормить ее не сможет, ведь — Грейс не пьет молоко, она будет пить… кровь! И теперь Мэделайн должна решить — способна ли она в прямом смысле убить человека, чтобы прокормить своего ребенка?

КиноПоиск: 4.143 (445)
IMDB: 5.20 (4 659)

Качество: BDRip
Продолжительность: 01:25:30

Формат: AVI
Видео кодек: XviD
Аудио кодек: AC3
Видео: 720x304 (2.35:1), 23.976 fps, XviD MPEG-4 ~1788 kbps avg, 0.341 bit/pixel
Аудио #1: 48 kHz, AC3 Dolby Digital, 3/2 (L,C,R,l,r) + LFE ch, ~448.00 kbps avg |Russian|
Аудио #2: 48 kHz, AC3 Dolby Digital, 2/0 (L,R) ch, ~192.00 kbps avg |English|
MediaInfo ▼TextОбщее
Полное имя : D:Grace.2009.BDRip.avi
Формат : AVI
Формат/Информация : Audio Video Interleave
Размер файла : 1,46 Гбайт
Продолжительность : 1 ч. 25 м.
Общий поток : 2437 Кбит/сек
Название фильма : Грэйс / Grace
Программа кодирования : VirtualDubMod 1.5.10.2 (build 2540/release)

Видео
Идентификатор : 0
Формат : MPEG-4 Visual
Профиль формата : Advanced [email protected]
Параметр BVOP формата : 1
Параметр QPel формата : Нет
Параметр GMC формата : Без точки перехода
Параметр матрицы формата : Выборочная
Идентификатор кодека : XVID
Идентификатор кодека/Подсказка : XviD
Продолжительность : 1 ч. 25 м.
Битрейт : 1788 Кбит/сек
Ширина : 720 пикс.
Высота : 304 пикс.
Соотношение сторон : 2,35:1
Частота кадров : 23,976 кадр/сек
Цветовое пространство : YUV
Подвыборка цветности : 4:2:0
Битовая глубина : 8 бит
Тип развёртки : Прогрессивная
Метод сжатия : С потерями
Бит/(Пиксели*Кадры) : 0.341
Размер потока : 1,07 Гбайт (73%)
Библиотека кодирования : XviD 1.2.1 (UTC 2008-12-04)

Аудио #1
Идентификатор : 1
Формат : AC-3
Формат/Информация : Audio Coding 3
Расширение режима : CM (complete main)
Идентификатор кодека : 2000
Продолжительность : 1 ч. 24 м.
Вид битрейта : Постоянный
Битрейт : 448 Кбит/сек
Каналы : 6 каналов
Расположение каналов : Front: L C R, Side: L R, LFE
Частота : 48,0 КГц
Битовая глубина : 16 бит
Метод сжатия : С потерями
Задержка видео : N/A. 0 мс.
Размер потока : 271 Мбайт (18%)
Выравнивание : Разделение по промежуткам
Продолжительность промежутка : 42 мс. (1,01 видеокадр)
Время предзагрузки промежутка : 500 ms

Аудио #2
Идентификатор : 2
Формат : AC-3
Формат/Информация : Audio Coding 3
Расширение режима : CM (complete main)
Идентификатор кодека : 2000
Продолжительность : 1 ч. 25 м.
Вид битрейта : Постоянный
Битрейт : 192 Кбит/сек
Каналы : 2 канала
Расположение каналов : Front: L R
Частота : 48,0 КГц
Битовая глубина : 16 бит
Метод сжатия : С потерями
Размер потока : 117 Мбайт (8%)
Выравнивание : Разделение по промежуткам
Продолжительность промежутка : 42 мс. (1,00 видеокадр)
Время предзагрузки промежутка : 500 ms


Стол заказов POWER
05c4ae769cd7ffa7ac15448d282fb648f502ef4aГрэйс / Grace (Паул Солет, ужасы, триллер, драма, 2009) [BDRip, Профессиональный (двухголосый, закадровый) + Оригинал] Грэйс / Grace (Паул Солет, ужасы, триллер, драма, 2009) [BDRip, Профессиональный (двухголосый, закадровый) + Оригинал] " />

Аплоадер: Админ, дата: 10-09-2012, 23:18, торрент скачан: 359 раз

Понравилась раздача? Посмотрите эти:
  • Бойфренд из будущего / About Time (Ричард Кёртис, Фантастика, драма, комеди ...
  • Одноклассники 2 / Grown Ups 2 (Деннис Дуган, Комедия, 2013) [BDRip, Професс ...
  • Кровью и потом: Анаболики / Pain & Gain (Майкл Бэй, криминал, комедия, трил ...
  • Миллион для чайников / The Brass Teapot (Рамаа Мосли, Фэнтези, триллер, ком ...
  • Астрал на улице Арлетт / 388 Arletta Avenue (Рэндолл Коул, Триллер, 2011) [ ...
  • Глушь / Resurrection County (Матт Зеттел, Ужасы,триллер, 2008) [DVDRip, Про ...
  • Жил-был тигр / Ek Tha Tiger (Кабир Кхан, боевик, триллер , 2012) [ HDRip, ...
  • Легенда о МорДу / The Legend of MorDu (Брайан Ларсен, Короткометражный, ска ...
  • Глядя на полумесяц / Hanbun no Tsuki ga Noboru Sora // Сезон 1, Эпизоды с 1 ...
  • Путешествие на дно моря / Voyage to the Bottom of the Sea (Ирвин Аллен / I ...
  • Кажется, я люблю свою жену / I Think I Love My Wife (Крис Рок, Драма, мелод ...
  • Бог любви / God of Love (Люк Мэзени, Короткометражка, фэнтези, комедия, мел ...
  • Боец из трущоб / Gutter King (Кейт Алан Моррис / Keith Alan Morris, боевик, ...
  • Кошмар / Nightmare / Qing Yan (Херман Яу, ужасы, триллер, 2012) [DVDRip, Лю ...
  • Черная Маска / Black Mask (Дэниэл Ли, фантастика, боевик, триллер, комедия, ...
  • Детский душ / Baby Shower (Pablo Illanes, Ужасы, 2011) [DVDRip, Любительски ...
  • Челюсти 3D / Shark Night 3D (Дэвид Р. Эллис, ужасы, триллер, 2011) [HDRip, ...
  • Многоцветье / Colorful (2010) [BDRip [HWP], любительский (двухголосый) + ор ...
  • Приключения Тинтина: Тайна Единорога / The Adventures of Tintin (Стивен Спи ...
  • Гениальный папа / Father of Invention (Трент Купер, Драма, комедия, 2010) [ ...
  • Жизнь за гранью / After.Life (Агнешка Войтович-Восло, Ужасы, триллер, драм ...
  • Застенок / The Jailhouse (Билли Льюис, Ужасы, Триллер, Детектив, 2009) [DV ...
  • Глаз шторма / The Eye of the Storm (Фред Скеписи, Драма, 2011) [HDRip, Проф ...
  • Шаг вперед 4 / Step Up Revolution (Скотт Спир, Драма, мелодрама, музыка, 20 ...
  • Сдохни, Джон Такер / John Tucker Must Die (Бетти Томас, мелодрама, комедия, ...
  • Информация
    Посетители, находящиеся в группе Гости, не могут оставлять комментарии к данной публикации.