вход на сайт

Имя пользователя :
Пароль :

Восстановление пароля Регистрация
Инкубус / Inkubus (Гленн Чиано, Ужасы, 2011) [DVDRip, Профессиональный (многоголосый закадровый), оригинал ]
Рейтинг:
(голосов: 1)



[img]{THEME}/images/logopost.png[/img]



Инкубус / Inkubus

Год выпуска: 2011
Страна: США
Производство: Woodhaven Production Company
Жанр: Ужасы

Режиссёр: Гленн Чиано / Glenn Ciano
В ролях: Роберт Инглунд, Уильям Форсайт, Джои Фатон, Джонатан Силвермен, Сера Верди, Николас Джон Билотта, Майк Черроне, Джессика Конлан

Перевод: Профессиональный (многоголосый закадровый), оригинал
Субтитры: отсутствуют

Описание: В центре событий команда рабочих отрабатывающая последнюю смену на готовящемся к сносу полицейском участке. Ночью в участок заявляется демон-инкубус с человеческой головой в руке и начинает рассказывать о своих злодеяниях которые творились здесь начиная со средневековья.




Качество: DVDRip
Продолжительность: 01:17:03

Формат: AVI
Видео кодек: XviD build 50
Аудио кодек: AC3 Dolby Digital
Видео:720x400 (16:9), 25 fps, XviD 1.2.1, ~1804 kbps avg, 0.25 bit/pixel
Аудио: 48 kHz, AC3 Dolby Digital, 3/2 (L,C,R,l,r) + LFE ch, ~448 kbps Russian
Аудио 2: 48 kHz, AC3 Dolby Digital, 3/2 (L,C,R,l,r) + LFE ch, ~448 kbps English

"Media Info" ▼General

Format : AVI
Format/Info : Audio Video Interleave
File size : 1.46 GiB
Duration : 1h 17mn
Overall bit rate : 2 716 Kbps
Movie name : Inkubus.2011.P.HDRip.IRONCLUB
Director : IRONCLUB
Writing application : VirtualDubMod 1.5.10.2 (build 2540/release)
Video #0
ID : 0
Format : MPEG-4 Visual
Format profile : [email protected]
Format settings, BVOP : Yes
Format settings, QPel : No
Format settings, GMC : No warppoints
Format settings, Matrix : Custom
Codec ID : XVID
Codec ID/Hint : XviD
Duration : 1h 17mn
Bit rate : 1 806 Kbps
Width : 720 pixels
Height : 400 pixels
Display aspect ratio : 16:9
Frame rate : 25.000 fps
Resolution : 24 bits
Colorimetry : 4:2:0
Scan type : Progressive
Bits/(Pixel*Frame) : 0.251
Stream size : 995 MiB (66%)
Writing library : XviD 1.2.1 (UTC 2008-12-04)
Audio #1
ID : 1
Format : AC-3
Format/Info : Audio Coding 3
Codec ID : 2000
Duration : 1h 17mn
Bit rate mode : Constant
Bit rate : 448 Kbps
Channel(s) : 6 channels
Channel positions : Front: L C R, Surround: L R, LFE
Sampling rate : 48.0 KHz
Stream size : 247 MiB (16%)
Alignment : Split accross interleaves
Interleave, duration : 40 ms (1.00 video frame)
Interleave, preload duration : 500 ms
Audio #2
ID : 2
Format : AC-3
Format/Info : Audio Coding 3
Codec ID : 2000
Duration : 1h 17mn
Bit rate mode : Constant
Bit rate : 448 Kbps
Channel(s) : 6 channels
Channel positions : Front: L C R, Surround: L R, LFE
Sampling rate : 48.0 KHz
Stream size : 247 MiB (16%)
Alignment : Split accross interleaves
Interleave, duration : 40 ms (1.00 video frame)
Interleave, preload duration : 500 ms


76a4ed9cd822393cd0f67eb52d97883a126666b8Инкубус / Inkubus (Гленн Чиано, Ужасы, 2011) [DVDRip, Профессиональный (многоголосый закадровый), оригинал ] Инкубус / Inkubus (Гленн Чиано, Ужасы, 2011) [DVDRip, Профессиональный (многоголосый закадровый), оригинал ] " />

Аплоадер: Админ, дата: 19-08-2012, 11:22, торрент скачан: 359 раз

Понравилась раздача? Посмотрите эти:
  • Погнали! / Getaway (Кортни Соломон, Боевик, Криминал, 2013) [HDRip, Професс ...
  • Орудие смерти / A-i-deul... (Ли Гю Ман, Триллер, криминал, 2011) [DVDRip, П ...
  • Верное дельце / Une pure affaire (Александр Коффре, Боевик, Комедия, Кримин ...
  • Мэрайа Мунди и шкатулка Мидаса / The Adventurer: The Curse of the Midas Box ...
  • Мужество / Wymyk (Грег Зглински, драма, 2011) [DVDRip, Любительский (одного ...
  • Ночь тамплиера / Night of the Templar (Пол Сэмпсон, Ужасы, фантастика, боев ...
  • Звук моего голоса / Sound of My Voice (Зал Батманглидж, триллер, драма, 201 ...
  • 23:59 / 23:59 (Гилберт Чан, Ужасы, 2011) [HDRip, Любительский (одноголосый ...
  • Воин / The One Warrior (Том Стаут, фантастика, 2011) [DVDRip,Оригинал,Профе ...
  • Плохая актриса / Bad Actress (Роберт Ли Кинг, комедия, 2011) [DVDRip, Профе ...
  • Любит - не любит... / Homecoming (Морган Дж. Фриман, триллер, 2009) [DVDRip ...
  • Супер циклон / Super Cyclone (Лиз Адамс / Liz Adams, боевик, 2012) [HDRip, ...
  • Захват / Carjacked (Джон Бонито, триллер, 2011)[BDRip, Профессиональный (мн ...
  • В поисках древней гробницы / Das Jesus Video (Себастьян Нимэнн, фантастика, ...
  • Джентльмен в коричневом / The Man in the Brown Suit (Алан Гринт, детектив, ...
  • Супершторм в Сиэтле / Seattle Superstorm (Джейсон Бурк, фантастика, боевик ...
  • Инкубус / Inkubus (Гленн Чиано, Ужасы, 2011) [DVDRip, Профессиональный (мно ...
  • Девушки в опасности / Damsels in Distress (Уит Стиллман, драма, мелодрама, ...
  • Глаз шторма / The Eye of the Storm (Фред Скеписи, Драма, 2011) [HDRip, Проф ...
  • Искажение / Skew (Сейв Челенз, ужасы, триллер, 2011) [HDRip, Профессиональн ...
  • Информация
    Посетители, находящиеся в группе Гости, не могут оставлять комментарии к данной публикации.