вход на сайт

Имя пользователя :
Пароль :

Восстановление пароля Регистрация
Ангел зла / Evil Angel (Ричард Дачер, ужасы, триллер, 2009) [HDRip, Профессиональный (двухголосый, закадровый)]
Рейтинг:
(голосов: 1)



[img]{THEME}/images/logopost.png[/img]



♥ Ангел зла / Evil Angel ♥

Год выпуска: 2009
Страна: США
Выпущено: Main Street Movie Company, Zion Films
Жанр: ужасы, триллер

Режиссёр: Ричард Дачер
В главных ролях: Винг Рэймс, Ава Годет, Кристофер Шепард, Ричард Дачер, Барт Джонсон, Мари Уэстбрук, ДеШон Терри, Дж.Дж. Бун, Жак Грэй, Синтия Кэлхун, Лукас Фляйшер, Татьяна Галиндо, Чарльз Халфорд, Леонард Келли-Янг, Мэрили Лесли, Малинда Мани, Эмили Пирсон, Ламонт Стефенс


Перевод: Профессиональный (двухголосый, закадровый)
Субтитры: Нет

О фильме: Когда Лилит, первая жена Адама, ослушалась его, она была изгнана из Эдемского Сада и Адам взял себе в жены другую женщину - Еву. Возмущенная этим Лилит решает мстить детям Адама и Евы до наших дней. Перерождаясь в телах умерших женщин с убийственно сексуальной и соблазнительной внешностью, Лилит, как первая женщина Земли, с гордостью претендует быть первым серийным убийцей в мире.





Качество: HDRip [Рип с BDRip 720р]
Продолжительность: 01:58:57 час
"Media Info" ▼C:UsersÍóðáåêDownloadsAngel.zla.2009.HDRip.avi
General
Complete name : C:UsersÍóðáåêDownloadsAngel.zla.2009.HDRip.avi
Format : AVI
Format/Info : Audio Video Interleave
File size : 703 MiB
Duration : 1h 58mn
Overall bit rate : 826 Kbps
Movie name : Angel.zla.2009.P2.HDRip.RG.F-Torrent
Director : RG.F-Torrent
Writing application : VirtualDubMod 1.5.4.1 (build 2178/release)
Copyright : www.F-Torrent.com
Video #0
ID : 0
Format : MPEG-4 Visual
Format profile : Advanced [email protected]
Format settings, BVOP : Yes
Format settings, QPel : No
Format settings, GMC : No warppoints
Format settings, Matrix : Custom
Codec ID : XVID
Codec ID/Hint : XviD
Duration : 1h 58mn
Bit rate : 689 Kbps
Width : 720 pixels
Height : 304 pixels
Display aspect ratio : 2.35:1
Frame rate : 25.000 fps
Resolution : 8 bits
Colorimetry : 4:2:0
Scan type : Progressive
Bits/(Pixel*Frame) : 0.126
Stream size : 586 MiB (83%)
Writing library : XviD 1.3.0.dev55
Audio #1
ID : 1
Format : MPEG Audio
Format version : Version 1
Format profile : Layer 3
Mode : Joint stereo
Format_Settings_ModeExtension : MS Stereo
Codec ID : 55
Codec ID/Hint : MP3
Duration : 1h 58mn
Bit rate mode : Constant
Bit rate : 128 Kbps
Channel(s) : 2 channels
Sampling rate : 48.0 KHz
Stream size : 109 MiB (15%)
&n
e048d92da5f6f74d5fb982f08a470ca9a1721c40Ангел зла / Evil Angel (Ричард Дачер, ужасы, триллер, 2009) [HDRip, Профессиональный (двухголосый, закадровый)] Ангел зла / Evil Angel (Ричард Дачер, ужасы, триллер, 2009) [HDRip, Профессиональный (двухголосый, закадровый)] " />

Аплоадер: Админ, дата: 18-06-2012, 01:58, торрент скачан: 359 раз

Понравилась раздача? Посмотрите эти:
  • Трансильмания / Transylmania (Дэвид Хилленбрэнд, Скотт Хилленбрэнд, Ужасы, ...
  • Финал / The Final (Джои Стюарт, ужасы, триллер, драма, 2010) [HDRip-AVC, Пр ...
  • Финал / The Final (Джои Стюарт, ужасы, триллер, драма, 2010) [HDRip-AVC, Пр ...
  • Финал / The Final (Джои Стюарт, ужасы, триллер, драма, 2010) [HDRip, Профес ...
  • Линия / La linea (Джеймс Коттен, Боевик, Триллер, Драма, Криминал, 2009) [H ...
  • Линия / La linea (Джеймс Коттен, Боевик, Триллер, Драма, Криминал, 2009) [H ...
  • Любой ценой / At Any Price (Рамин Бахрани, Триллер, Драма, 2012) [HDRip, Пр ...
  • Татуировщик / The Tattooist (Питер Бюргер, Ужасы, Триллер, 2007) [HDRip, Пр ...
  • Последний вампир / Blood: The Last Vampire (Крис Наон, Ужасы, Фэнтези, Боев ...
  • Заноза / Splinter (Тоби Уилкинс, Ужасы, Триллер, 2008) [HDRip, Профессионал ...
  • Нежность / Tenderness (Джон Полсон, Триллер, драма, криминал, 2009) [HDRip, ...
  • Остановка 2: Не оглядывайся назад / Rest Stop: Dont Look Back (Шоун Папазян ...
  • Похищение / Rapt / Lösegeld (Люка Бельво, триллер, 2009) [HDRip, профессион ...
  • Военные игры / War Games: At the End of the Day(Козимо Алема, Триллер, Ужас ...
  • Мисс Март / Miss March (Тревор Мур, Комедия, 2009) [HDRip, Профессиональный ...
  • Ужасный способ умереть / A Horrible Way to Die (Адам Вингард, ужасы, трилле ...
  • Полусвет / Half Light (Крэйг Розенберг, Ужасы, триллер, драма, детектив, 20 ...
  • Замёрзший мир / 2012: Ice Age (Трэвис Форт, фантастика, боевик, 2011) [HDRi ...
  • Проклятая / The New Daughter (Луисо Бердейо, ужасы, триллер, 2009) [BDRip, ...
  • Искажение / Skew (Сейв Челенз, ужасы, триллер, 2011) [HDRip, Профессиональн ...
  • Мертвеход / The Revenant (Д. Керри Прайор, ужасы, комедия, 2009) [HDRip, Пр ...
  • Татуировщик / The Tattooist (Питер Бюргер, ужасы, триллер, 2007) [HDRip, Пр ...
  • Встреча со злом / Абсолютное зло / Meeting Evil (Крис Фишер, триллер, драма ...
  • Ничего, кроме правды / Nothing But the Truth (Род Лури, триллер, драма, 200 ...
  • Обрезание / Excision (Ричард Бейтс мл., ужасы, драма, комедия,2012) [HDRip, ...
  • Информация
    Посетители, находящиеся в группе Гости, не могут оставлять комментарии к данной публикации.