вход на сайт

Имя пользователя :
Пароль :

Восстановление пароля Регистрация
Ужасный способ умереть / A Horrible Way to Die (Адам Вингард, ужасы, триллер, 2010) [HDRip, Профессиональный (многоголосный, закадровый)]
Рейтинг:
(голосов: 1)



[img]{THEME}/images/logopost.png[/img]



Ужасный способ умереть / A Horrible Way to Die

Cлоган:«Он знает тысячу способов смерти. Не попадайся ему!»

Год выпуска: 2010
Страна: США
Выпущено: Arable Entertainment, Site B, Snowfort Pictures
Жанр: ужасы, триллер

Режиссёр: Адам Вингард
В главных ролях: Ай Бауэн, Эми Сейметц, Джо Сванберг, Джереми Кэрролл, Лэйн Хьюз, Мелисса Ботрих, Стивен Бухлер, Джен Хаммер, Уитни Мур, Холли Фогс

Перевод: Профессиональный (многоголосный) [лицензия]
Субтитры: Нет

О фильме: Сара и Кевин знакомятся на встрече анонимных алкоголиков. Пара начинает встречаться, их отношения становятся всё более близкими, однако Сара не спешит делиться с Кевином подробностями своей прежней жизни. Между тем её бывший сожитель Геррик был известным серийным маньяком, которого она самолично сдала полиции, и которому совсем недавно удалось бежать из-под стражи.




Качество: HDRip
Продолжительность: 01:29:10 час
"Media Info" ▼D:Uzhasnyj.sposob.umeret.2010.P.HDRip.avi
General
Complete name : D:Uzhasnyj.sposob.umeret.2010.P.HDRip.avi
Format : AVI
Format/Info : Audio Video Interleave
File size : 743 MiB
Duration : 1h 27mn
Overall bit rate : 1 191 Kbps
Writing application : VirtualDubMod 1.5.10.3 | www.virtualdub-fr.org || (build 2550/release)
Writing library : VirtualDubMod build 2550/release
Video #0
ID : 0
Format : MPEG-4 Visual
Format profile : Advanced [email protected]
Format settings, BVOP : Yes
Format settings, QPel : No
Format settings, GMC : No warppoints
Format settings, Matrix : Custom
Codec ID : XVID
Codec ID/Hint : XviD
Duration : 1h 27mn
Bit rate : 1 054 Kbps
Width : 688 pixels
Height : 384 pixels
Display aspect ratio : 16:9
Frame rate : 23.976 fps
Resolution : 8 bits
Colorimetry : 4:2:0
Scan type : Progressive
Bits/(Pixel*Frame) : 0.166
Stream size : 658 MiB (88%)
Writing library : XviD 1.2.1 (UTC 2008-12-04)
Audio #1
ID : 1
Format : AC-3
Format/Info : Audio Coding 3
Format_Settings_ModeExtension : CM (complete main)
Codec ID : 2000
Duration : 1h 27mn
Bit rate mode : Constant
Bit rate : 128 Kbps
Channel(s) : 2 channels
Channel positions : Front: L R
Sampling rate : 48.0 KHz
Stream size : 79.9 MiB (11%)
Alignment : Split accross interleaves
Interleave, duration : 42 ms (1.00 video frame)
Interleave, preload duration : 500 ms
Формат: AVI
Видео кодек: XviD
Аудио кодек: MPEG La
ac86f5166c0a888173e4cb03a6734eb6486c39cdУжасный способ умереть / A Horrible Way to Die (Адам Вингард, ужасы, триллер, 2010) [HDRip, Профессиональный (многоголосный, закадровый)] Ужасный способ умереть / A Horrible Way to Die (Адам Вингард, ужасы, триллер, 2010) [HDRip, Профессиональный (многоголосный, закадровый)] " />

Аплоадер: Админ, дата: 15-06-2012, 20:13, торрент скачан: 359 раз

Понравилась раздача? Посмотрите эти:
  • Обнаженный страх / Naked Fear (Том Эберхардт, ужасы, триллер, 2007) [HDRip, ...
  • Марафон / De Marathon (Дидрик Копал, комедия, спорт, 2012) [HDRip, Професси ...
  • Марафон / De Marathon (Дидрик Копал, комедия, спорт, 2012) [HDRip, Професси ...
  • Мои герои / Mes heros (Эрик Беснард, комедия, 2012) [HDRip, Профессиональны ...
  • Финал / The Final (Джои Стюарт, ужасы, триллер, драма, 2010) [HDRip, Профес ...
  • Кодовое имя «Джеронимо» / Seal Team Six: The Raid on Osama Bin Laden (Джон ...
  • Раскрашенная кожа 2 / Hua Pi 2 (Вуершан, фэнтези, боевик, триллер, драма, 2 ...
  • Ночь тамплиера / Night of the Templar (Пол Сэмпсон, Ужасы, фантастика, боев ...
  • Вампирская сага / True Bloodthirst (Тодор Чапканов, Ужасы,Фантастика,Боевик ...
  • Подмена / Switch (Фредерик Шёндёрфер, триллер, криминал, 2011) [HDRip, Проф ...
  • Слепой поворот / Blind Turn (Роберт Орр, Триллер, драма, детектив, 2012) [W ...
  • 23:59 / 23:59 (Гилберт Чан, Ужасы, 2011) [HDRip, Любительский (одноголосый ...
  • Захват / Carjacked (Джон Бонито, триллер, 2011)[BDRip, Профессиональный (мн ...
  • Коллекционер 2 / The Collection (Маркус Данстэн, ужасы, боевик, триллер , 2 ...
  • Битва в пустыне / The Objective (Дэниэл Мирик, ужасы, фантастика, триллер, ...
  • Задание / The Task (Алекс Оруэлл, Ужасы, 2010) [HDRip, Профессиональный (мн ...
  • Военные игры / War Games: At the End of the Day(Козимо Алема, Триллер, Ужас ...
  • Романтики / The Romantics (Галт Нидерхоффер, Драма, мелодрама, комедия, 201 ...
  • Полусвет / Half Light (Крэйг Розенберг, Ужасы, триллер, драма, детектив, 20 ...
  • Искажение / Skew (Сейв Челенз, ужасы, триллер, 2011) [HDRip, Профессиональн ...
  • Информация
    Посетители, находящиеся в группе Гости, не могут оставлять комментарии к данной публикации.