вход на сайт

Имя пользователя :
Пароль :

Восстановление пароля Регистрация
Военные игры / War Games: At the End of the Day(Козимо Алема, Триллер, Ужасы, 2010) [HDRip, Профессиональный (многоголосный, закадровый)]
Рейтинг:
(голосов: 1)



[img]{THEME}/images/logopost.png[/img]



♥ Военные игры / War Games: At the End of the Day ♥


Год выпуска: 2010
Страна: Италия
Производство: BMovies, Frame by Frame, T.M. 2005, The Mob
Жанр: Триллер, Ужасы, Боевик

Режиссёр: Козимо Алема
В ролях: Стефани Чапман-Бакер, Сэм Кохан, Валене Кейн, Нейл Линпов, Лутс Майкл, Эндрю Миллс, Моника Мирга, Майкл Скерми, Том Стэнли, Дэниэл Вивиани

Перевод: Профессиональный (многоголосный, закадровый)
Субтитры: Нет

Описание: Во время соревнования по пейнтболу участники военной игры сталкиваются с убийцами.Вся игривая ситуация принимает неожиданный поворот, когда в лесу появляются три солдата, которые начали использовать боевые патроны. Качество: HDRip
Продолжительность: 01:37:50 час
"Media Info" ▼TextC:UsersÍóðáåêVoennye.igry.2011.P.HDRip.700MB.avi
General
Complete name : C:UsersÍóðáåêVoennye.igry.2011.P.HDRip.700MB.avi
Format : AVI
Format/Info : Audio Video Interleave
File size : 702 MiB
Duration : 1h 37mn
Overall bit rate : 1 003 Kbps
Writing application : VirtualDubModRus 1.5.10.2 (build 2542/release)
Writing library : VirtualDubMod build 2542/release
Video #0
ID : 0
Format : MPEG-4 Visual
Format profile : Advanced [email protected]
Format settings, BVOP : Yes
Format settings, QPel : No
Format settings, GMC : No warppoints
Format settings, Matrix : Custom
Codec ID : XVID
Codec ID/Hint : XviD
Duration : 1h 37mn
Bit rate : 882 Kbps
Width : 656 pixels
Height : 352 pixels
Display aspect ratio : 1.864
Frame rate : 23.976 fps
Resolution : 8 bits
Colorimetry : 4:2:0
Scan type : Progressive
Bits/(Pixel*Frame) : 0.159
Stream size : 617 MiB (88%)
Writing library : XviD 1.2.1 (UTC 2008-12-04)
Audio #1
ID : 1
Format : MPEG Audio
Format version : Version 1
Format profile : Layer 3
Codec ID : 55
Codec ID/Hint : MP3
Duration : 1h 37mn
Bit rate mode : Constant
Bit rate : 112 Kbps
Channel(s) : 2 channels
Sampling rate : 44.1 KHz
Stream size : 78.3 MiB (11%)
Alignment : Split accross interleaves
Interleave, duration : 42 ms (1.00 video frame)
Interleave, preload duration : 500 ms
Writing library : LAME3.98r
Encoding settings : -m s -V 4 -q 2 -lowpass 15.6 -b 112
Формат: AVI
Видео кодек: XviD
Аудио кодек: MP3
Видео: XviD, 656x352, 23.976 fps, ~ 882 Kbit/s, 0.159 bits/pixel
Аудио: MP3, 48000 Hz, 2 channels, 112 kbit/s

&n
4fcc89fbaa377524a2d92f517965452e238e7c6eВоенные игры / War Games: At the End of the Day(Козимо Алема, Триллер, Ужасы, 2010) [HDRip, Профессиональный (многоголосный, закадровый)] Военные игры / War Games: At the End of the Day(Козимо Алема, Триллер, Ужасы, 2010) [HDRip, Профессиональный (многоголосный, закадровый)] " />

Аплоадер: Админ, дата: 19-05-2012, 14:17, торрент скачан: 359 раз

Понравилась раздача? Посмотрите эти:
  • Погнали! / Getaway (Кортни Соломон, Боевик,Криминал, 2013) [HDRip, Професси ...
  • Мои герои / Mes heros (Эрик Беснард, комедия, 2012) [HDRip, Профессиональны ...
  • Слепой поворот / Blind Turn (Роберт Орр, Триллер, драма, детектив, 2012) [W ...
  • Военные Игры / War Games: At The End Of The Day ( Козимо Алема, триллер, у ...
  • [EN] Команда: На пути Аллаха / Takiye: Allah yolunda (2010, Бен Вербонг, тр ...
  • Новые парни турбо / New Kids Turbo (Штефен Хаарс, Боевик, комедия, 2010) [H ...
  • Формула 1 2011 / Этап 17 из 19 / Гран-При Индии / Гонка / Спорт 1 [30.10.20 ...
  • Чемпионат Европы 2012 / Группа D / 1-й тур / Украина - Швеция / Спорт 1 [11 ...
  • Tank Feat. T.I. & Kris Stephens / Compliments [2012, RnB,Hip-Hop, HDRip]
  • Неделя в NBA с В.Гомельским / НТВ+ [28.06.2011, SD, XviD, RU, SAT]
  • Задание / The Task (Алекс Оруэлл, Ужасы, 2010) [HDRip, Профессиональный (мн ...
  • Мистер Ганджубас / Mr. Nice (Бернард Роуз, Драма, комедия, 2010)[HDRip, Про ...
  • Романтики / The Romantics (Галт Нидерхоффер, Драма, мелодрама, комедия, 201 ...
  • Ужасный способ умереть / A Horrible Way to Die (Адам Вингард, ужасы, трилле ...
  • Полусвет / Half Light (Крэйг Розенберг, Ужасы, триллер, драма, детектив, 20 ...
  • Олимпиада 2012 / Женщины, Мужчины / Плавание / Квалификация / НТВ+ [30.07.2 ...
  • Инкубус / Inkubus (Гленн Чиано, Ужасы, 2011) [DVDRip, Профессиональный (мно ...
  • Глушь / Resurrection County (Matt Zettell, ужасы, триллер, 2008) [DVDRip, П ...
  • Искажение / Skew (Сейв Челенз, ужасы, триллер, 2011) [HDRip, Профессиональн ...
  • Ничего, кроме правды / Nothing But the Truth (Род Лури, триллер, драма, 200 ...
  • Информация
    Посетители, находящиеся в группе Гости, не могут оставлять комментарии к данной публикации.