вход на сайт

Имя пользователя :
Пароль :

Восстановление пароля Регистрация
Болото / Venom (Джим Гиллеспи, ужасы, триллер,2005) [BDRip-AVC, Профессиональный (многоголосый закадровый) + Sub]
Рейтинг:
(голосов: 1)



[img]{THEME}/images/logopost.png[/img]



Болото / Venom
«He Never Hurt A Soul Until The Day He Died.»

Год выпуска: 2005
Страна: США
Производство: Dimension Films
Жанр: ужасы, триллер

Режиссёр: Джим Гиллеспи
В ролях: Агнес Брукнер, Джонатан Джексон, Лаура Рэмси, Ди Джей Котрона, Рик Крамер, Меган Гуд, Бижу Филлипс, Метод Мэн, Павел Жайда, Даветта Шервуд, Стэйси Трэвис, Маркус Лайл Браун, Джеймс Пикенс мл., Дебора Дьюк, Майкл Джеймс Дьюкс, Дэвид Мишель

Перевод: Профессиональный (многоголосый закадровый) (СТС)
Субтитры: английские

Описание: Когда Рей помогал пожилой негритянке в дорожном происшествии на мосту, его покусали змеи, которые были у нее в чемодане. Потеряв сознание, он упал с моста и утонул. Спасённая бабуля ужаснулась, сказав, что в вуду при помощи этих змей, она высасывала злую сторону у плохих людей. Но покусав мужчину, они тем самым переместили в него всю ту плохую энергию, что накопилась в них за многие годы. И теперь оживший Рей, одержимый всеми возможными демонами, будет приносить им кровавые человеческие жертвы…



Качество: BDRip-AVC (BDRemux 1080p)
Продолжительность: 01:26:52 час.

Формат: MKV
Видео кодек: AVC
Аудио кодек: AC-3
Видео: 896x496 (16:9), 23,976 fps, AVC ~2187 kbps, 0,205 bit/pix
Аудио: 48 kHz, AC-3, 2 ch, ~192.00 kbps avg | Russian (MVO)

Премьера (мир): 16 сентября 2005
Mediainfo ▼Video
ID : 1
Format : AVC
Format/Info : Advanced Video Codec
Format profile : [email protected]
Format settings, CABAC : Yes
Format settings, ReFrames : 8 frames
Codec ID : V_MPEG4/ISO/AVC
Duration : 1h 26mn
Bit rate : 2 187 Kbps
Width : 896 pixels
Height : 496 pixels
Display aspect ratio : 16:9
Frame rate : 23.976 fps
Color space : YUV
Chroma subsampling : 4:2:0
Bit depth : 8 bits
Scan type : Progressive
Bits/(Pixel*Frame) : 0.205
Stream size : 1.30 GiB (90%)
Writing library : x264 core 92 r1510 33d382a
Encoding settings : cabac=1 / ref=8 / deblock=1:-2:-1 / analyse=0x3:0x113 / me=umh / subme=10 / psy=1 / psy_rd=1.00:0.20 / mixed_ref=1 / me_range=24 / chroma_me=1 / trellis=2 / 8x8dct=1 / cqm=0 / deadzone=21,11 / fast_pskip=0 / chroma_qp_offset=-3 / threads=1 / sliced_threads=0 / nr=0 / decimate=0 / interlaced=0 / constrained_intra=0 / bframes=3 / b_pyramid=2 / b_adapt=2 / b_bias=0 / direct=3 / wpredb=1 / wpredp=2 / keyint=250 / keyint_min=25 / scenecut=40 / intra_refresh=0 / rc_lookahead=60 / rc=2pass / mbtree=1 / bitrate=2187 / ratetol=1.0 / qcomp=0.60 / qpmin=10 / qpmax=51 / qpstep=4 / cplxblur=20.0 / qblur=0.5 / vbv_maxrate=17500 / vbv_bufsize=14000 / ip_ratio=1.40 / aq=1:1.00 / nal_hrd=none
Language : English
Audio
ID : 2
Format : AC-3
Format/Info : Audio Coding 3
Mode extension : CM (complete main)
Codec ID : A_AC3
Duration : 1h 26mn
Bit rate mode : Constant
Bit rate : 192 Kbps
Channel(s) : 2 channels
Channel positions : Front: L R
Sampling rate : 48.0 KHz
Bit depth : 16 bits
Compression mode : Lossy
Stream size : 119 MiB (8%)
Language : Russian
Text
ID : 3
Format : UTF-8
Codec ID : S_TEXT/UTF8
Codec ID/Info : UTF-8 Plain Text
Language : English
Menu
00:00:00.000 : en:00:00:00.000
00:06:52.370 : en:00:06:52.370
00:13:43.197 : en:00:13:43.197
00:20:09.083 : en:00:20:09.083
00:23:29.366 : en:00:23:29.366
00:29:33.730 : en:00:29:33.730
00:35:03.101 : en:00:35:03.101
00:40:10.366 : en:00:40:10.366
00:47:19.295 : en:00:47:19.295
00:54:00.487 : en:00:54:00.487
01:00:47.394 : en:01:00:47.394
01:05:07.445 : en:01:05:07.445
01:07:41.766 : en:01:07:41.766
01:12:51.784 : en:01:12:51.784
01:15:54.216 : en:01:15:54.216


99742d6c4fea0f2fc549177287fd5e3f5b4e6e4fБолото / Venom (Джим Гиллеспи, ужасы, триллер,2005) [BDRip-AVC, Профессиональный (многоголосый закадровый) + Sub] Болото / Venom (Джим Гиллеспи, ужасы, триллер,2005) [BDRip-AVC, Профессиональный (многоголосый закадровый) + Sub] " />

Аплоадер: Админ, дата: 29-04-2012, 04:09, торрент скачан: 359 раз

Понравилась раздача? Посмотрите эти:
  • Последний вампир / Blood: The Last Vampire (Крис Наон, Ужасы, фэнтези, боев ...
  • Живая Мертвечина / Braindead (Питер Джексон, Ужасы, комедия, 1992) [BDRip-A ...
  • Смерть на похоронах / Death at a Funeral (Нил ЛаБут, комедия, 2010) [BDRip ...
  • Отдел 13 / Diamant 13 (Гайллз Бэхат, Боевик, триллер, криминал, 2009) [BDRi ...
  • Честь дракона / Tom yum goong (Прачья Пинкаю, боевик, триллер, драма, крим ...
  • Бессмертные души / Soul Survivors (Стивен Карпентер, ужасы, триллер, драма, ...
  • Зубная фея 2 / Tooth Fairy 2 (Алекс Замм, комедия, семейный, 2012) [BDRip 7 ...
  • Убить по расписанию / Ticking Clock (Эрни Барбараш, фантастика, боевик, три ...
  • Шелуха / Husk (Бретт Симмонс, ужасы, триллер, 2011) [BDRip 720p, Профессион ...
  • Крутые времена / Harsh Times (Дэвид Эйер /David Ayer/, триллер, драма, крим ...
  • Обряд / The Rite (Микаэль Хафстрем, ужасы, триллер, драма, 2011) [BDRip-AVC ...
  • Обряд / The Rite (Микаэль Хафстрем, ужасы, триллер, драма, 2011) [BDRip-AVC ...
  • Поворот не туда 4 / Wrong Turn 4 (Деклан О’Брайэн, ужасы, боевик, детектив, ...
  • Пир / Feast (Джон Гулажер, ужасы, боевик, триллер, комедия, 2005) [BDRip-AV ...
  • Секреты Лос-Анжелеса / L.A. Confidential (Кертис Хэнсон, триллер, драма, кр ...
  • Пятница 13-е / Friday the 13th (Шон С. Каннингэм, ужасы, триллер, детектив, ...
  • Пятница 13-е Часть 2 / Friday the 13th Part 2 (Стив Майнер, ужасы, триллер, ...
  • Пятница 13-е Часть III / Friday the 13th Part III (Стив Майнер, ужасы, трил ...
  • Коллекционер 2 / The Collection (Маркус Данстэн, ужасы, боевик, триллер , 2 ...
  • Семь футов / Seven Below (Кевин Каррауэй, Ужасы, триллер, 2012) [BDRip 720p ...
  • Mylene Farmer / Du Temps [2011, Pop, HDTVRip]
  • Mylene Farmer / Bleu Noir [2011, Pop, HDTVRip]
  • Коллекционер / The Collector (Маркус Данстэн, Ужасы, триллер, 2009) [BDRip- ...
  • Хостел 3 / Hostel: Part III (Скотт Спигел / Scott Spiegel, ужасы, триллер, ...
  • Исполнитель желаний / Wishmaster (Роберт Курцман, ужасы, фэнтези, 1997) [DV ...
  • Информация
    Посетители, находящиеся в группе Гости, не могут оставлять комментарии к данной публикации.