вход на сайт

Имя пользователя :
Пароль :

Восстановление пароля Регистрация
Отзвуки эха 2: Возвращение / Stir of Echoes: The Homecoming (Эрни Барбараш, ужасы, триллер, 2007) [DVDRip, Профессиональный (многоголосый)]
Рейтинг:
(голосов: 1)



[img]{THEME}/images/logopost.png[/img]



Отзвуки эха 2: Возвращение / Stir of Echoes: The Homecoming
«This time, the door cannot be locked»

Год выпуска: 2007
Страна: США Канада
Производство: Lions Gate Entertainment, Stir Productions
Жанр: Ужасы, триллер

Режиссёр: Эрни Барбараш
В ролях: Роб Лоу, Бен Льюис, Татьяна Маслани, Шоун Робертс, Вик Сахай, Колин Уильямс

Перевод: Профессиональный многоголосый [Лицензия]
Субтитры: Отсутствуют

Описание: Тэд Коган участвует в военных действиях в Ираке. За время службы он не раз смотрел смерти в лицо. На одном из боевых дежурств ему пришлось отдать приказ стрелять в нежелающий останавливаться фургон. Позже он обнаруживает, что в фургоне была иракская семья. Тэд с напарниками пытаются вытащить еще живую девочку из горящего фургона, но фургон взрывается. Тэд и его друзья получают сильные ранения, девочка погибает. После госпиталя Тэд возвращается домой, в надежде жить как раньше, со своей семьей, нормальной и счастливой жизнью. Но теперь его восприятие мира изменилось, в сознание все чаще стали вторгаться призраки умерших людей, свидетелем или виновником чьей смерти он был. Блуждая между видениями и реальностью, Тэд пытается разобраться в себе и наконец сделать правильный выбор, по возможности искупив свои прошлые грехи.

IMDB: 4.70 (769)
КиноПоиск: 4.585 (60)

"Mediainfo" ▼Общее
Полное имя : Otzvuki.yеha.2.Vozvrashenie.2007.XviD.DVDRip.IRONCLUB.avi
Формат : AVI
Формат/Информация : Audio Video Interleave
Размер файла : 1,46 Гбайт
Продолжительность : 1 ч. 32 м.
Общий поток : 2271 Кбит/сек
Название фильма : Stir.of.Echoes.The.Homecoming.2007.DVDRip.IRONCLUB
Режиссёр : -=IRONCLUB=-
Программа кодирования : VirtualDubMod 1.5.10.2 (build 2540/release)
Формат оригинала/Имя : Movie
Правообладатель : http://ironclub.tv/

Видео
Идентификатор : 0
Формат : MPEG-4 Visual
Профиль формата : Advanced [email protected]
Параметр BVOP формата : Нет
Параметр QPel формата : Нет
Параметр GMC формата : Без точки перехода
Параметр матрицы формата : Выборочная
Идентификатор кодека : XVID
Идентификатор кодека/Подсказка : XviD
Продолжительность : 1 ч. 32 м.
Битрейт : 1877 Кбит/сек
Ширина : 720 пикс.
Высота : 304 пикс.
Соотношение сторон : 2,35:1
Частота кадров : 25,000 кадр/сек
Цветовое пространство : YUV
Подвыборка цветности : 4:2:0
Битовая глубина : 8 бит
Тип развёртки : Прогрессивная
Метод сжатия : С потерями
Бит/(Пиксели*Кадры) : 0.343
Размер потока : 1,21 Гбайт (83%)
Библиотека кодирования : XviD 1.2.1 (UTC 2008-12-04)

Аудио
Идентификатор : 1
Формат : AC-3
Формат/Информация : Audio Coding 3
Расширение режима : CM (complete main)
Идентификатор кодека : 2000
Продолжительность : 1 ч. 31 м.
Вид битрейта : Постоянный
Битрейт : 384 Кбит/сек
Канал(ы) : 6 канала(ов)
Расположение каналов : Front: L C R, Side: L R, LFE
Частота : 48,0 КГц
Битовая глубина : 16 бит
Метод сжатия : С потерями
Размер потока : 253 Мбайт (17%)
Выравнивание : Разделение по промежуткам
Продолжительность промежутка : 40 мс. (1,00 видеокадр)
Время предзагрузки промежутка : 500 ms

Качество: DVDRip
Продолжительность: 01:30:34

Формат: AVI
Видео кодек: XviD
Аудио кодек: AС3
Видео: 720x304 (2,35:1), 25,000 fps, 1877 kbps avg, 0.343 bit/pixel
Аудио: 48 kHz, АС3, 6 channels (Front: L C R, Side: L R, LFE), 384 kbps avg


1708e54141d5aeaece4f6337bd04e437afbae167Отзвуки эха 2: Возвращение / Stir of Echoes: The Homecoming (Эрни Барбараш, ужасы, триллер, 2007) [DVDRip, Профессиональный (многоголосый)] Отзвуки эха 2: Возвращение / Stir of Echoes: The Homecoming (Эрни Барбараш, ужасы, триллер, 2007) [DVDRip, Профессиональный (многоголосый)] " />

Аплоадер: Админ, дата: 16-04-2012, 19:30, торрент скачан: 359 раз

Понравилась раздача? Посмотрите эти:
  • Одноклассники 2 / Grown Ups 2 (Деннис Дуган, Комедия, 2013) [BDRip, Професс ...
  • Чужеродное вторжение / Alien Raiders (Бен Рок, Фантастика, триллер, ужасы, ...
  • Даю год / I Give It a Year (Дэн Мазер, Мелодрама, комедия, 2013) [DVDRip, Д ...
  • Отзвуки эха / Stir of Echoes (Дэвид Коуп, ужасы, триллер, детектив, 1999г) ...
  • Убить по расписанию / Ticking Clock (Эрни Барбараш, фантастика, боевик, три ...
  • Отзвуки эха / Stir of Echoes (Дэвид Коуп, ужасы, триллер, детектив, 1999) ...
  • Отзвуки эха / Stir of Echoes (Дэвид Кепп, ужасы, триллер, 1999) [HDRip-AVC ...
  • Отзвуки эха / Stir of Echoes (Дэвид Коуп, ужасы, триллер, детектив, 1999) [ ...
  • Глушь / Resurrection County (Матт Зеттел, Ужасы,триллер, 2008) [DVDRip, Про ...
  • Путешествие на дно моря / Voyage to the Bottom of the Sea (Ирвин Аллен / I ...
  • Кажется, я люблю свою жену / I Think I Love My Wife (Крис Рок, Драма, мелод ...
  • Заместитель / Il supplente (Андреа Жублин, Короткометражка, комедия, 2007) ...
  • У дьявола нет лица / Plasterhead (Кевин Хиггинс / Kevin Higgins, ужасы, три ...
  • Боец из трущоб / Gutter King (Кейт Алан Моррис / Keith Alan Morris, боевик, ...
  • Кошмар / Nightmare / Qing Yan (Херман Яу, ужасы, триллер, 2012) [DVDRip, Лю ...
  • Детский душ / Baby Shower (Pablo Illanes, Ужасы, 2011) [DVDRip, Любительски ...
  • Челюсти 3D / Shark Night 3D (Дэвид Р. Эллис, ужасы, триллер, 2011) [HDRip, ...
  • Пожирая живых / Ночь зомби / Zombie Night (Дэвид Дж. Фрэнсис, Ужасы, комеди ...
  • Застенок / The Jailhouse (Билли Льюис, Ужасы, Триллер, Детектив, 2009) [DV ...
  • Глаз шторма / The Eye of the Storm (Фред Скеписи, Драма, 2011) [HDRip, Проф ...
  • Информация
    Посетители, находящиеся в группе Гости, не могут оставлять комментарии к данной публикации.