вход на сайт

Имя пользователя :
Пароль :

Восстановление пароля Регистрация
Голод / Hunger (Стивен Хентгес, ужасы, триллер, 2009) [HDRip, Профессиональный (многоголосый закадровый)]
Рейтинг:
(голосов: 1)



[img]{THEME}/images/logopost.png[/img]



Голод / Hunger
«Без пищи человеческое тело может прожить только 30 дней, а потом...»
Год выпуска: 2009
Страна: США
Производство: 5 States, Global Empire Studios, Liberty Artists Inc.
Жанр: ужасы, триллер/color]

Режиссёр: Стивен Хентгес
В ролях: Лори Хёринг, Линден Эшби, Джо Эгендер, Лиа Кол, Джулиан Рохас, Бьорн Джонсон, Бриттен Пэртэйн, Джон Кули, Йен Хоппер

Перевод: Профессиональный (многоголосый закадровый) [Лицензия]
Субтитры: Отсутствуют

Описание: Голод — это одно из самых страшных чувств человечества. Как далеко можно зайти, чтобы выжить в чрезвычайных обстоятельствах? Пятеро, незнакомых друг с другом, людей просыпаются в подземной темнице, из которой нет выхода. Вскоре они понимают, что стали жертвами садистского эксперимента по проверке желания человека выжить. Проходит день за днём без надежды на спасение, а вместо этого приходит чувство страшного голода, которое уничтожает всё человеческое в несчастных людях…



Дата премьеры (мир): 15 мая 2009
Качество: HDRip (Исходник: BDRip 720p)
Продолжительность: 01:36:56

Формат: AVI
Видео кодек: XviD
Аудио кодек: AC3
Видео: 720x400 (16:9), 25 fps, XviD build 50 ~1762 kbps avg, 0.245 bit/pixel
Аудио: 48 kHz, AC3 Dolby Digital, 3/2 (L,C,R,l,r) + LFE ch, ~384.00 kbps avg/color]
MediaInfo ▼TextVideo
ID : 0
Format : MPEG-4 Visual
Format profile : Advanced [email protected]
Format settings, BVOP : Yes
Format settings, QPel : No
Format settings, GMC : No warppoints
Format settings, Matrix : Default (MPEG)
Codec ID : XVID
Codec ID/Hint : XviD
Duration : 1h 36mn
Bit rate : 1 762 Kbps
Width : 720 pixels
Height : 400 pixels
Display aspect ratio : 16:9
Frame rate : 25.000 fps
Color space : YUV
Chroma subsampling : 4:2:0
Bit depth : 8 bits
Scan type : Progressive
Bits/(Pixel*Frame) : 0.245
Stream size : 1.19 GiB (82%)
Writing library : XviD 1.2.1 (UTC 2008-12-04)

Audio
ID : 1
Format : AC-3
Format/Info : Audio Coding 3
Mode extension : CM (complete main)
Codec ID : 2000
Duration : 1h 36mn
Bit rate mode : Constant
Bit rate : 384 Kbps
Channel(s) : 6 channels
Channel positions : Front: L C R, Side: L R, LFE
Sampling rate : 48.0 KHz
Bit depth : 16 bits
Video delay : 400ms
Stream size : 266 MiB (18%)
Alignment : Split accross interleaves
Interleave, duration : 40 ms (1.00 video frame)
Interleave, preload duration : 500 ms





e3071929f48e7553ad98f3c6f35f164024a5d3c0Голод / Hunger (Стивен Хентгес, ужасы, триллер, 2009) [HDRip, Профессиональный (многоголосый закадровый)] Голод / Hunger (Стивен Хентгес, ужасы, триллер, 2009) [HDRip, Профессиональный (многоголосый закадровый)] " />

Аплоадер: Админ, дата: 3-03-2012, 22:14, торрент скачан: 359 раз

Понравилась раздача? Посмотрите эти:
  • Погнали! / Getaway (Кортни Соломон, Боевик, Криминал, 2013) [HDRip, Професс ...
  • Ночь тамплиера / Night of the Templar (Пол Сэмпсон, Ужасы, фантастика, боев ...
  • Всадник / The Horseman (Стивен Кастриссиос, Триллер, Криминал, 2008) [HDRi ...
  • Всадник / The Horseman (Стивен Кастриссиос, Триллер, Криминал, 2008) [HDRi ...
  • 23:59 / 23:59 (Гилберт Чан, Ужасы, 2011) [HDRip, Любительский (одноголосый ...
  • Остановка 2: Не оглядывайся назад / Rest Stop: Dont Look Back (Шоун Папазян ...
  • Остановка / Rest Stop: Dead Ahead (Джон Шибан, ужасы, триллер, 2006) [HDRip ...
  • Супер циклон / Super Cyclone (Лиз Адамс / Liz Adams, боевик, 2012) [HDRip, ...
  • Захват / Carjacked (Джон Бонито, триллер, 2011)[BDRip, Профессиональный (мн ...
  • Коллекционер 2 / The Collection (Маркус Данстэн, ужасы, боевик, триллер , 2 ...
  • Битва в пустыне / The Objective (Дэниэл Мирик, ужасы, фантастика, триллер, ...
  • Шелуха / Husk (Бретт Симмонс / Brett Simmons, ужасы, триллер, 2011) [HDRip, ...
  • Супершторм в Сиэтле / Seattle Superstorm (Джейсон Бурк, фантастика, боевик ...
  • Голод / Hunger (Стивен Хентгес,Ужасы, Триллер, 2009) [DVDRip, Профессиональ ...
  • Три балбеса / The Three Stooges (Бобби Фаррелли, Питер Фаррелли, Комедия, 2 ...
  • Девушки в опасности / Damsels in Distress (Уит Стиллман, драма, мелодрама, ...
  • Искажение / Skew (Сейв Челенз, ужасы, триллер, 2011) [HDRip, Профессиональн ...
  • Мертвеход / The Revenant (Д. Керри Прайор, ужасы, комедия, 2009) [HDRip, Пр ...
  • Татуировщик / The Tattooist (Питер Бюргер, ужасы, триллер, 2007) [HDRip, Пр ...
  • За гранью / Beyond (Йозеф Руснак, триллер, 2012) [HDRip, Профессиональный ...
  • Информация
    Посетители, находящиеся в группе Гости, не могут оставлять комментарии к данной публикации.