вход на сайт

Имя пользователя :
Пароль :

Восстановление пароля Регистрация
Ключ от всех дверей / The Skeleton Key (Иэн Софтли, ужасы, 2005) [HDRip, Дублированный]
Рейтинг:
(голосов: 1)



[img]{THEME}/images/logopost.png[/img]



• Ключ от всех дверей / The Skeleton Key •
♥ Год выпуска: 2005
♥ Страна: США
♥ Производство: Universal Pictures
♥ Жанр: Ужасы

♥ Режиссёр: Иэн Софтли
♥ В ролях: Кейт Хадсон, Джина Роулэндс, Джон Харт, Питер Сарсгаард, Джой Брайант, Максин Барнетт, Денин Тайлер, Энн Далримпл.

♥ Перевод: Дублированный
♥ Субтитры: Отсутствуют

♥ Описание: 25-летняя Кэролайн Эллис устраивается работать сиделкой к пожилому инвалиду Бену Деверо, владельцу огромного особняка неподалеку от Луизианы. Его жена Вайолет вручает девушке универсальный ключ от всех дверей в доме. Однажды Кэролайн обнаруживает секретную комнату, расположенную на чердаке с массой мистических предметов. Хозяйка утверждает, что вещи принадлежат бывшим владельцам, которые занимались черной магией. Вскоре Кэролайн становится свидетельницей довольно странных и необъяснимых событий и решает, во что бы то ни стало, разгадать секрет таинственной комнаты…



♥ Качество: HDRip [Сравнение с HDRip]
♥ Продолжительность: 01:43:57

♥ Формат: AVI
♥ Видео кодек: XviD
♥ Аудио кодек: MP3
♥ Видео: 688x288 (2.39:1), 23.976 fps, XviD build 62 ~862 kbps avg, 0.18 bit/pixel
♥ Аудио: 48 kHz, MPEG Layer 3, 2 ch, ~128.00 kbps avg
MediaInfo: ▼TextGeneral
Complete name : C:Documents and SettingsАдминистраторРабочий столThe Skeleton Key.Dub.HDRip.avi
Format : AVI
Format/Info : Audio Video Interleave
File size : 743 MiB
Duration : 1h 43mn
Overall bit rate : 1 000 Kbps
Writing application : VirtualDubModRus 1.5.10.2 (build 2542/release)
Writing library : VirtualDubMod build 2542/release
Video
ID : 0
Format : MPEG-4 Visual
Format profile : Advanced [email protected]
Format settings, BVOP : 1
Format settings, QPel : No
Format settings, GMC : No warppoints
Format settings, Matrix : Custom
Codec ID : XVID
Codec ID/Hint : XviD
Duration : 1h 43mn
Bit rate : 862 Kbps
Width : 688 pixels
Height : 288 pixels
Display aspect ratio : 2.40:1
Frame rate : 23.976 fps
Color space : YUV
Chroma subsampling : 4:2:0
Bit depth : 8 bits
Scan type : Progressive
Compression mode : Lossy
Bits/(Pixel*Frame) : 0.182
Stream size : 641 MiB (86%)
Writing library : XviD 62
Audio
ID : 1
Format : MPEG Audio
Format version : Version 1
Format profile : Layer 3
Codec ID : 55
Codec ID/Hint : MP3
Duration : 1h 43mn
Bit rate mode : Constant
Bit rate : 128 Kbps
Channel(s) : 2 channels
Sampling rate : 48.0 KHz
Compression mode : Lossy
Stream size : 95.1 MiB (13%)
Alignment : Aligned on interleaves
Interleave, duration : 42 ms (1.00 video frame)
Interleave, preload duration : 504 ms
Writing library : LAME3.98r
Encoding settings : -m s -V 4 -q 2 -lowpass 17 -b 128
Релиз Группы «Virtus»

Стол заказов | Вступление в РГ | Благодарности, критика и другое


bfed2c615436dd5fdcc2274b575e0ff5cc9439dcКлюч от всех дверей / The Skeleton Key (Иэн Софтли, ужасы, 2005) [HDRip, Дублированный] Ключ от всех дверей / The Skeleton Key (Иэн Софтли, ужасы, 2005) [HDRip, Дублированный] " />

Аплоадер: Админ, дата: 29-02-2012, 17:39, торрент скачан: 359 раз

Понравилась раздача? Посмотрите эти:
  • Погнали! / Getaway (Кортни Соломон, Боевик,Криминал, 2013) [HDRip, Професси ...
  • Аэротачки / Sky Force 3D (Тони Тэнг, мультфильм, 2012) [HDRip, Дублированны ...
  • Ключ от всех дверей / The Skeleton Key (Иэн Софтли, триллер, драма, детекти ...
  • Газетчик / The Paperboy (Ли Дэниелс, триллер, 2012) [HDRip, Дублированный]
  • В хлам / Smashed (Джеймс Понсольдт, Драма, комедия, 2012) [HDRip, Профессио ...
  • Скуби-Ду! Маска Синего Сокола / Scooby-Doo! Mask Of The Blue Falcon (Оливье ...
  • Ключ от всех дверей / The Skeleton Key (Иен Софтли, ужасы, триллер, драма, ...
  • Рождественские каникулы / Christmas Vacation (Джеримайя С. Чечик, комедия, ...
  • Ключ от всех дверей / The Skeleton Key (Иэн Софтли, ужасы, триллер, драма, ...
  • Чемпионат Европы 2012 / Группа D / 1-й тур / Украина - Швеция / Спорт 1 [11 ...
  • Tank Feat. T.I. & Kris Stephens / Compliments [2012, RnB,Hip-Hop, HDRip]
  • Порочная страсть / Arbitrage (Николас Джареки, триллер, драма, 2012) [HDRip ...
  • Мутанты / Mimic (Гильермо дель Торо, ужасы, фантастика, 1997) [HDRip, Профе ...
  • Страх / Fear (Джеймс Фоули, ужасы, триллер, драма, 1996) [BDRip, Дубляж]
  • Индиана Джонс: В поисках утраченного ковчега / Indiana Jones and the Raider ...
  • Ключ от всех дверей/Skeleton Key, The [2005,мистика, HDRip]
  • Ключ от всех дверей / The Skeleton Key (Айэйн Софтли, Ужасы, Триллер, Драма ...
  • Пятница 13-е / Friday the 13th (Маркус Ниспел / Marcus Nispel, ужасы, 2009) ...
  • Ресторан господина Септима / Le grand restaurant (Жак Бенар, комедия, крим ...
  • Будь круче! / Be Cool (Ф. Гэри Грей, комедия, криминал, 2005) [BDRip, Дубли ...
  • Военные игры / War Games: At the End of the Day(Козимо Алема, Триллер, Ужас ...
  • Чемпионат Европы 2012 / Группа B / 1-й тур / Германия - Португалия / Спорт ...
  • Несущая смерть / Tamara (Джереми Хафт, Ужасы, триллер, 2005) [HDRip, Дублир ...
  • Искажение / Skew (Сейв Челенз, ужасы, триллер, 2011) [HDRip, Профессиональн ...
  • Татуировщик / The Tattooist (Питер Бюргер, ужасы, триллер, 2007) [HDRip, Пр ...
  • Информация
    Посетители, находящиеся в группе Гости, не могут оставлять комментарии к данной публикации.