вход на сайт

Имя пользователя :
Пароль :

Восстановление пароля Регистрация
Хостел 3 / Hostel: Part III (Скотт Спигел / Scott Spiegel, ужасы, триллер, детектив, 2011) [HDRip-AVC, Профессиональный (многоголосый) + Оригинал + Субтитры (eng)]
Рейтинг:
(голосов: 1)



[img]{THEME}/images/logopost.png[/img]



Хостел 3 / Hostel: Part III

Год выпуска: 2011
Страна: США
Производство: Raw Nerve,RCR Media Group, Stage 6 Films
Жанр: ужасы, триллер, детектив

Режиссёр: Скотт Спигел / Scott Spiegel
В ролях: Томас Кречманн, Кип Парду, Джон Хенсли, Сара Хабель, Бэрри Ливингстон, Брайан Хэллисей, Келли Тибо, Скайлер Стоун, Дэнни Джейкобс

Перевод: Профессиональный (многоголосый) [Лицензия] + Оригинал
Субтитры: Английские [UTF-8]

Описание: На этот раз события развернутся не в кровожадных притонах Словакии, а в Лас-Вегасе, где одна холостяцкая вечеринка пошла не совсем по плану - нас ожидает очередная кровавая бойня.


Дата премьеры (мир): 27 декабря 2011
Качество: HDRip-AVC
Продолжительность: 01:27:45

Формат: MKV
Видео кодек: x264
Аудио кодек: AC3 Dolby Digital
Видео: 912x512 (16:9), 23.976 fps, 1 989 kbps avg, 0.178 bit/pixel
Аудио1: Русский, 48 kHz, AC3, 6 ch, 384.00 kbps Constant
Аудио2: Английский, 48 kHz, AC3, 2 ch, 192.00 kbps Constant

MediaInfo ▼TextVideo
ID : 1
Format : AVC
Format/Info : Advanced Video Codec
Format profile : [email protected]
Format settings, CABAC : Yes
Format settings, ReFrames : 11 frames
Codec ID : V_MPEG4/ISO/AVC
Duration : 1h 27mn
Bit rate : 1 989 Kbps
Width : 912 pixels
Height : 512 pixels
Display aspect ratio : 16:9
Frame rate : 23.976 fps
Color space : YUV
Chroma subsampling : 4:2:0
Bit depth : 8 bits
Scan type : Progressive
Bits/(Pixel*Frame) : 0.178
Stream size : 1.19 GiB (76%)
Writing library : x264 core 119 r2106 07efeb4
Encoding settings : cabac=1 / ref=11 / deblock=1:-2:-1 / analyse=0x3:0x113 / me=umh / subme=9 / psy=1 / psy_rd=1.00:0.10 / mixed_ref=1 / me_range=32 / chroma_me=1 / trellis=2 / 8x8dct=1 / cqm=0 / deadzone=21,11 / fast_pskip=1 / chroma_qp_offset=-3 / threads=9 / sliced_threads=0 / nr=0 / decimate=1 / interlaced=0 / bluray_compat=0 / constrained_intra=0 / bframes=10 / b_pyramid=2 / b_adapt=2 / b_bias=0 / direct=3 / weightb=1 / open_gop=0 / weightp=0 / keyint=240 / keyint_min=23 / scenecut=40 / intra_refresh=0 / rc_lookahead=80 / rc=2pass / mbtree=1 / bitrate=1989 / ratetol=1.0 / qcomp=0.60 / qpmin=0 / qpmax=69 / qpstep=4 / cplxblur=20.0 / qblur=0.5 / ip_ratio=1.40 / aq=2:0.90
Language : English

Audio #1
ID : 2
Format : AC-3
Format/Info : Audio Coding 3
Mode extension : CM (complete main)
Codec ID : A_AC3
Duration : 1h 27mn
Bit rate mode : Constant
Bit rate : 384 Kbps
Channel(s) : 6 channels
Channel positions : Front: L C R, Side: L R, LFE
Sampling rate : 48.0 KHz
Bit depth : 16 bits
Compression mode : Lossy
Stream size : 241 MiB (15%)
Language : Russian

Audio #2
ID : 3
Format : AC-3
Format/Info : Audio Coding 3
Mode extension : CM (complete main)
Codec ID : A_AC3
Duration : 1h 27mn
Bit rate mode : Constant
Bit rate : 192 Kbps
Channel(s) : 2 channels
Channel positions : Front: L R
Sampling rate : 48.0 KHz
Bit depth : 16 bits
Compression mode : Lossy
Stream size : 121 MiB (7%)
Language : English

Text #1
ID : 4
Format : UTF-8
Codec ID : S_TEXT/UTF8
Codec ID/Info : UTF-8 Plain Text
Language : English

Text #2
ID : 5
Format : UTF-8
Codec ID : S_TEXT/UTF8
Codec ID/Info : UTF-8 Plain Text
Language : English

Menu
00:00:00.000 : ru:00:00:00.000000000
00:05:00.000 : :00:05:00.000000000
00:10:00.000 : :00:10:00.000000000
00:15:00.000 : :00:15:00.000000000
00:20:00.000 : :00:20:00.000000000
00:25:00.000 : :00:25:00.000000000
00:30:00.000 : :00:30:00.000000000
00:35:00.000 : :00:35:00.000000000
00:40:00.000 : :00:40:00.000000000
00:45:00.000 : :00:45:00.000000000
00:50:00.000 : :00:50:00.000000000
00:55:00.000 : :00:55:00.000000000
01:00:00.000 : :01:00:00.000000000
01:05:00.000 : :01:05:00.000000000
01:10:00.000 : :01:10:00.000000000
01:15:00.000 : :01:15:00.000000000
01:20:00.000 : :01:20:00.000000000
01:25:00.000 : :01:25:00.000000000





a36b0d63896783147d815cb287da026d620e14b8Хостел 3 / Hostel: Part III (Скотт Спигел / Scott Spiegel, ужасы, триллер, детектив, 2011) [HDRip-AVC, Профессиональный (многоголосый) + Оригинал + Субтитры (eng)] Хостел 3 / Hostel: Part III (Скотт Спигел / Scott Spiegel, ужасы, триллер, детектив, 2011) [HDRip-AVC, Профессиональный (многоголосый) + Оригинал + Субтитры (eng)] " />

Аплоадер: Админ, дата: 14-01-2012, 13:42, торрент скачан: 359 раз

Понравилась раздача? Посмотрите эти:
  • Пастырь / Priest (Скотт Чарльз Стюарт, ужасы, фантастика, боевик, триллер, ...
  • Гость / The Caller (Мэттью Паркхилл, триллер, детектив, 2011) [BDRip 720p, ...
  • Убить по расписанию / Ticking Clock (Эрни Барбараш, фантастика, боевик, три ...
  • Шелуха / Husk (Бретт Симмонс, ужасы, триллер, 2011) [BDRip 720p, Профессион ...
  • Властелин измерений / Grande ourse - La cle des possibles (Патрис Сов, фант ...
  • Персонаж / Stranger Than Fiction (Марк Форстер, Комедия, драма, фантастика, ...
  • Фантомы / Shutter (Масаюки Очиай, ужасы, триллер, детектив, 2008) [BDRip-AV ...
  • Затаившиеся / Hidden (Антуан Томас, ужасы, триллер, 2011) [HDRip-AVC, Дубли ...
  • Поворот не туда 4 / Wrong Turn 4 (Деклан О’Брайэн, ужасы, боевик, детектив, ...
  • Робин Гуд [Режиссёрская версия] / Robin Hood [Directors Cut] (Ридли Скотт / ...
  • Пятница 13-е Часть 2 / Friday the 13th Part 2 (Стив Майнер, ужасы, триллер, ...
  • Пятница 13-е Часть III / Friday the 13th Part III (Стив Майнер, ужасы, трил ...
  • Похищенная / A Lonely Place to Die (Джулиан Джилби, триллер, криминал, прик ...
  • Ворон / The Raven (Джеймс МакТиг, Триллер, детектив, 2012) [BDRip 720p, Дуб ...
  • Mylene Farmer / Du Temps [2011, Pop, HDTVRip]
  • Mylene Farmer / Bleu Noir [2011, Pop, HDTVRip]
  • Нет мужчин - нет проблем / Without Men (Габриела Тальявини / Gabriela Tagli ...
  • Хостел 3 / Hostel: Part III (Скотт Спигел, ужасы, триллер, детектив, 2011) ...
  • Хостел 3 / Hostel: Part III (Скотт Спигел, ужасы, триллер, детектив, 2011) ...
  • Хостел 3 / Hostel: Part III (Скотт Спигел, Ужасы, Триллер, Детектив, 2011) ...
  • Информация
    Посетители, находящиеся в группе Гости, не могут оставлять комментарии к данной публикации.