вход на сайт

Имя пользователя :
Пароль :

Восстановление пароля Регистрация
Синдикат смерти / Fleisch (Оливер Шмитц / Oliver Schmitz, Фантастика, триллер, криминал, 2008) [DVDRip, профессиональный (многоголосый закадровый)]
Рейтинг:
(голосов: 1)



[img]{THEME}/images/logopost.png[/img]



Синдикат смерти / Fleisch


Год выпуска: 2008
Страна: Германия ЮАР
Производство: New Regency Pictures
Жанр: Фантастика, триллер, криминал

Режиссёр: Оливер Шмитц / Oliver Schmitz
В ролях: Тереза Шольце, Себастьян Штробель, Тони Кгороге, Сьюзэн Дэнфорд

Перевод: профессиональный (многоголосый закадровый) - лицензия "Евразия Синема"
Субтитры: Отсутствуют

Описание: Бесплатный сыр бывает только в мышеловке. Именно об этом надо было подумать молодой паре, прежде чем соглашаться на туристическую поездку в Южную Африку, соблазнившись очень низкой, почти символической ценой. Воодушевлённые, они отправляются на юг чёрного континента. Неприятные сюрпризы начинаются сразу же, как только молодожёны приезжают в местечко, вовсе не похожее на рай для туристов. К тому же они ещё не знают, что именно здесь орудует мощный преступный синдикат, занимающийся похищением людей и торговлей человеческими органами. Но уже поздно что-то менять, и вместо романтического отпуска молодых людей ожидает панический страх, угроза нависшей смерти, бегство и отчаянные попытки понять, что же происходит на самом деле.Дата премьеры (мир): 18 февраля 2008
Качество: DVDRip (Исходник: DVD5)
Продолжительность: 01:31:31

Формат: AVI
Видео кодек: XviD
Аудио кодек: MP3
Видео: 656x368 (1.78:1), 25 fps, XviD build 65 ~999 kbps avg, 0.17 bit/pixel
Аудио: 48 kHz, MPEG Layer 3, 2 ch, ~128.00 kbps avg
MediaInfo ▼Text
General
Complete name : /mnt/data/torrents/god_den/sindikat.smerti.2008.dvdrip.745mb.by.riperrr.avi
Format : AVI
Format/Info : Audio Video Interleave
File size : 745 MiB
Duration : 1h 31mn
Overall bit rate : 1 137 Kbps
Writing application : VirtualDubMod 1.5.10.3 | www.virtualdub-fr.org || (build 2550/release)
Writing library : VirtualDubMod build 2550/release

Video
ID : 0
Format : MPEG-4 Visual
Format profile : Advanced [email protected]
Format settings, BVOP : 1
Format settings, QPel : No
Format settings, GMC : No warppoints
Format settings, Matrix : Custom
Codec ID : XVID
Codec ID/Hint : XviD
Duration : 1h 31mn
Bit rate : 1 000 Kbps
Width : 656 pixels
Height : 368 pixels
Display aspect ratio : 16:9
Frame rate : 25.000 fps
Color space : YUV
Chroma subsampling : 4:2:0
Bit depth : 8 bits
Scan type : Progressive
Compression mode : Lossy
Bits/(Pixel*Frame) : 0.166
Stream size : 655 MiB (88%)
Writing library : XviD 65

Audio
ID : 1
Format : MPEG Audio
Format version : Version 1
Format profile : Layer 3
Codec ID : 55
Codec ID/Hint : MP3
Duration : 1h 31mn
Bit rate mode : Constant
Bit rate : 128 Kbps
Channel(s) : 2 channels
Sampling rate : 48.0 KHz
Compression mode : Lossy
Stream size : 83.8 MiB (11%)
Alignment : Aligned on interleaves
Interleave, duration : 40 ms (1.00 video frame)
Interleave, preload duration : 504 ms
Writing library : LAME3.98r
Encoding settings : -m s -V 4 -q 0 -lowpass 17 -b 128

886566a22974dd9734db6842f0923570dcf36c7fСиндикат смерти / Fleisch (Оливер Шмитц / Oliver Schmitz, Фантастика, триллер, криминал, 2008) [DVDRip, профессиональный (многоголосый закадровый)] Синдикат смерти / Fleisch (Оливер Шмитц / Oliver Schmitz, Фантастика, триллер, криминал, 2008) [DVDRip, профессиональный (многоголосый закадровый)] " />

Аплоадер: Админ, дата: 4-01-2012, 23:20, торрент скачан: 359 раз

Понравилась раздача? Посмотрите эти:
  • Непристойная комедия / InAPPropriate Comedy (Винс Оффер, комедия, 2013) [DV ...
  • Погнали! / Getaway (Кортни Соломон, Боевик,Криминал, 2013) [HDRip, Професси ...
  • Орудие смерти / A-i-deul... (Ли Гю Ман, Триллер, криминал, 2011) [DVDRip, П ...
  • Мэрайа Мунди и шкатулка Мидаса / The Adventurer: The Curse of the Midas Box ...
  • Ледяной / The Iceman (Ариэль Вромен, триллер, драма, криминал, биография, 2 ...
  • Всадник / The Horseman (Стивен Кастриссиос, Триллер, Криминал, 2008) [HDRi ...
  • Решала (Роман Асхаев, Драма,Криминал, 2012) [WEB-DLRip, Не требуется]
  • Всадник / The Horseman (Стивен Кастриссиос, Триллер, Криминал, 2008) [HDRi ...
  • Колония / The Colony (Джефф Ренфро, фантастика, боевик, триллер, 2013) [DVD ...
  • Игра смерти / Game of death (Роберт Клауз, Саммо Хунг Кам-Бо, Брюс Ли, боев ...
  • Без всего / Sin ella (Джордже Колон, Мелодрама, 2010) [HDTVRip , Профессион ...
  • Чемпионат Европы 2012 / Группа D / 1-й тур / Украина - Швеция / Спорт 1 [11 ...
  • Битва в пустыне / The Objective (Дэниэл Мирик, ужасы, фантастика, триллер, ...
  • Буря в Арктике / Arctic Blast (Брайан Тренчард-Смит, фантастика, триллер, 2 ...
  • Вскрытие инопланетянина/Alien Autopsy (Джонни Кэмпбелл, Комедия, фантастика ...
  • Повторяющие / Repeaters (режиссёр, фантастика, триллер, драма, 2010) [DVDRi ...
  • Миленькие штучки / Les Jolies Choses (Жиль Паке-Бреннер, драма, 2011) [DVDR ...
  • Романтики / The Romantics (Галт Нидерхоффер, Драма, мелодрама, комедия, 201 ...
  • Чемпионат Европы 2012 / Группа B / 1-й тур / Германия - Португалия / Спорт ...
  • Пропавшие / Gone (Ринган Ледвидж, ужасы, триллер, драма, 2007) [DVDRip, Пр ...
  • Мгновение любви / Here (Браден Кинг, Драма, мелодрама, приключения, 2011) [ ...
  • Глушь / Resurrection County (Matt Zettell, ужасы, триллер, 2008) [DVDRip, П ...
  • Искажение / Skew (Сейв Челенз, ужасы, триллер, 2011) [HDRip, Профессиональн ...
  • Ничего, кроме правды / Nothing But the Truth (Род Лури, триллер, драма, 200 ...
  • Петля времени / Looper (Райан Джонсон, фантастика, боевик, триллер, 2012) [ ...
  • Информация
    Посетители, находящиеся в группе Гости, не могут оставлять комментарии к данной публикации.