вход на сайт

Имя пользователя :
Пароль :

Восстановление пароля Регистрация
Челюсти 3D / Shark Night 3D (Дэвид Р. Эллис, ужасы, триллер, 2011) [HDRip, Профессиональное (полное дублирование)]
Рейтинг:
(голосов: 1)



[img]{THEME}/images/logopost.png[/img]



«Челюсти 3D / Shark Night 3D»

«Terror runs deep.»

Год выпуска: 2010
Страна: США
Производство: Incentive Filmed Entertainment, Next Films
Жанр: ужасы, триллер

Режиссёр: Дэвид Р. Эллис
В ролях: Сара Пэкстон, Дастин Миллиган, Крис Кармак, Кэтрин МакФи, Донал Лог, Крис Зилка, Алисса Диаз, Джоэль Мур, Джошуа Леонард

Перевод: Профессиональное (полное дублирование) [лицензия]
Озвучка: не известно
Субтитры:нет

Описание
Сюжет фильма вращается вокруг группы подростков, учащихся колледжа, которые проводят свои выходные на воде в большом озере. Вскоре они обнаруживают, что зубастая опасность скрывается под ними, в непроглядной глубине…

» IMDB-рейтинг:4.00 (4 372)

» КиноПоиск-рейтинг:4.140 (2 840)

Доп. информация
Премьеры ▼премьера (мир)31 августа 2011
премьера (РФ)1 сентября 2011, «Централ Партнершип»
релиз на DVD 17 ноября 2011, «Новый Диск»
Рейтинг MPAA ▼
детям до 13 лет просмотр не желателен
Mediainfo ▼TextОбщее
Полное имя : D:DownloadsЧелюсти 3D.2011.D.HDRip.avi
Формат : AVI
Формат/Информация : Audio Video Interleave
Размер файла : 1,37 Гбайт
Продолжительность : 1 ч. 30 м.
Общий поток : 2164 Кбит/сек
Программа кодирования : VirtualDubMod 1.5.10.2 (build 2540/release)
Библиотека кодирования : VirtualDubMod build 2540/release

Видео
Идентификатор : 0
Формат : MPEG-4 Visual
Профиль формата : Advanced [email protected]
Параметр BVOP формата : 4
Параметр QPel формата : Нет
Параметр GMC формата : 3 точки перехода
Параметр матрицы формата : Default (H.263)
Режим смешивания : Сжатый битовый поток
Идентификатор кодека : XVID
Идентификатор кодека/Подсказка : XviD
Продолжительность : 1 ч. 30 м.
Битрейт : 1446 Кбит/сек
Ширина : 720 пикс.
Высота : 384 пикс.
Соотношение сторон : 1,875
Частота кадров : 23,976 кадр/сек
Цветовое пространство : YUV
Подвыборка цветности : 4:2:0
Битовая глубина : 8 бит
Тип развёртки : Прогрессивная
Метод сжатия : С потерями
Бит/(Пиксели*Кадры) : 0.218
Размер потока : 936 Мбайт (67%)
Библиотека кодирования : XviD 1.2.1 (UTC 2008-12-04)

Аудио #1
Идентификатор : 1
Формат : AC-3
Формат/Информация : Audio Coding 3
Идентификатор кодека : 2000
Продолжительность : 1 ч. 30 м.
Вид битрейта : Постоянный
Битрейт : 448 Кбит/сек
Канал(ы) : 6 канала(ов)
Частота : 48,0 КГц
Метод сжатия : С потерями
Размер потока : 290 Мбайт (21%)
Выравнивание : Соединение по промежуткам
Продолжительность промежутка : 42 мс. (1,00 видеокадр)
Время предзагрузки промежутка : 500 ms

Аудио #2
Идентификатор : 2
Формат : AC-3
Формат/Информация : Audio Coding 3
Расширение режима : CM (complete main)
Идентификатор кодека : 2000
Продолжительность : 1 ч. 30 м.
Вид битрейта : Постоянный
Битрейт : 256 Кбит/сек
Канал(ы) : 6 канала(ов)
Расположение каналов : Front: L C R, Side: L R, LFE
Частота : 48,0 КГц
Битовая глубина : 16 бит
Метод сжатия : С потерями
Размер потока : 166 Мбайт (12%)
Выравнивание : Разделение по промежуткам
Продолжительность промежутка : 42 мс. (1,00 видеокадр)
Время предзагрузки промежутка : 500 ms


Тех. данные
Качество: ~ НÐRìρ ~
Продолжительность: 01:30:31 часа


Формат: AVI
Видео кодек: XviD
Аудио кодек: MP3
Видео: 720x384 (1.88:1), 23.976 fps, XviD MPEG-4 ~1446 kbps avg, 0.21 bit/pixel
Аудио: 48 kHz, AC3 Dolby Digital, 6 ch, ~448.00 kbps avgРусский
Аудио: 48 kHz, AC3 Dolby Digital, 6 ch, ~256.00 kbps avgАнглийский



cтол заказов | пожелания | стол заказов по рипам


ff58ad3dae040d1ed6a5b910b5a64e403c80f7e9Челюсти 3D / Shark Night 3D (Дэвид Р. Эллис, ужасы, триллер, 2011) [HDRip, Профессиональное (полное дублирование)] Челюсти 3D / Shark Night 3D (Дэвид Р. Эллис, ужасы, триллер, 2011) [HDRip, Профессиональное (полное дублирование)] " />

Аплоадер: Админ, дата: 22-12-2011, 16:35, торрент скачан: 359 раз

Понравилась раздача? Посмотрите эти:
  • Бойфренд из будущего / About Time (Ричард Кёртис, Фантастика, драма, комеди ...
  • Одноклассники 2 / Grown Ups 2 (Деннис Дуган, Комедия, 2013) [BDRip, Професс ...
  • Челюсти 3D / Shark Night 3D (Дэвид Р. Эллис, ужасы, триллер, 2011) [BDRip-A ...
  • Челюсти 3D / Shark Night 3D ( Дэвид Р. Эллис, ужасы, 2011) [BDRip-AVC, Проф ...
  • Челюсти 3D / Shark Night 3D (Дэвид Р. Эллис, Ужасы, 2011) [HDRip - AVC, Дуб ...
  • Жил-был тигр / Ek Tha Tiger (Кабир Кхан, боевик, триллер , 2012) [ HDRip, ...
  • Приключения Икабода и Мистера Тоада / The Adventures Of Ichabod And Mr. Toa ...
  • Легенда о МорДу / The Legend of MorDu (Брайан Ларсен, Короткометражный, ска ...
  • [3D] Челюсти 3Д / Shark Night 3D (Дэвид Р. Эллис / David R. Ellis, 2011, Уж ...
  • Челюсти 3D / Shark Night 3D (Дэвид Р. Эллис, Ужасы, 2011) [BD-Remux, Дубляж ...
  • Бог любви / God of Love (Люк Мэзени, Короткометражка, фэнтези, комедия, мел ...
  • Дорога на... / Road to (Таисия Игуменцева, Комедия, короткометражный, 2011) ...
  • Кошмар / Nightmare / Qing Yan (Херман Яу, ужасы, триллер, 2012) [DVDRip, Лю ...
  • Детский душ / Baby Shower (Pablo Illanes, Ужасы, 2011) [DVDRip, Любительски ...
  • Ловчий смерти / Death Hunter (Дастин Рикерт, Ужасы, 2010) [DVDRip, Професси ...
  • Челюсти 3D / Shark Night 3D (Дэвид Р. Эллис, ужасы, триллер, 2011) [BDRip, ...
  • Ловцы забытых голосов / Hoshi wo Ou Kodomo (2011) [HDRip, любительский (одн ...
  • Пожирая живых / Ночь зомби / Zombie Night (Дэвид Дж. Фрэнсис, Ужасы, комеди ...
  • Глаз шторма / The Eye of the Storm (Фред Скеписи, Драма, 2011) [HDRip, Проф ...
  • Сдохни, Джон Такер / John Tucker Must Die (Бетти Томас, мелодрама, комедия, ...
  • Информация
    Посетители, находящиеся в группе Гости, не могут оставлять комментарии к данной публикации.