вход на сайт

Имя пользователя :
Пароль :

Восстановление пароля Регистрация
Пункт назначения 5 / Final Destination 5 (Стивен Куэйл / Steven Quale, ужасы, триллер, 2011) [BDRip-AVC, Профессиональный (полное дублирование) + Субтитры (eng, rus)]
Рейтинг:
(голосов: 1)



[img]{THEME}/images/logopost.png[/img]



Пункт назначения 5 | Final Destination 5
«Опасность ещё не была столь близка»

Год выпуска: 2011
Страна: США
Производство: New Line Cinema
Жанр: ужасы, триллер

Режиссёр: Стивен Куэйл / Steven Quale
В ролях: Николас ДАгосто, Эмма Белл, Майлз Фишер, Эллен Ро, Жаклин МакИннес Вуд, П.Дж. Бирн, Арлен Эскарпета, Дэвид Кокнер, Кортни Б. Вэнс, Тони Тодд

Перевод: Профессиональный (полное дублирование) [Лицензия]
Субтитры: Русские, Английские [полные, UTF-8]

Описание: У Сэма Лоутона происходит жуткое видение: подвесной мост, на котором он находится со своими друзьями, рушится, и многие люди, включая его самого, погибают. Сэм начинает паниковать и уговаривает своих друзей и ещё нескольких «счастливчиков» уйти с моста. И как раз вовремя: как и предвидел Сэм, мост рушится на их глазах и множество людей погибает. Однако Сэм и его девушка Молли понимают, что смерть дала им лишь отсрочку, так как выжившие начинают погибать один за другим. Он должен понять, как обманув смерть однажды, обмануть её ещё раз, прежде чем настанет его очередь.
Дата премьеры (мир): 4 августа 2011
Дата премьеры (РФ): 25 августа 2011, «Каро-Премьер»
Качество: BDRip-AVC (Исходник: Final Destination 5 2011 1080p Blu-ray AVC DTS HD-MA 5.1-HDChina)
Продолжительность: 01:31:49

Формат: MKV
Видео кодек: x264
Аудио кодек: AC3
Видео: 1 056x440 (2.40:1); 23,976 fps; 1 821 kbps; 0.163 bit/pixel
Аудио: 48 kHz, 6 ch (Front: L C R, Side: L R, LFE), 448.00 kbps avg
MediaInfo ▼TextVideo
ID : 1
Format : AVC
Format/Info : Advanced Video Codec
Format profile : [email protected]
Format settings, CABAC : Yes
Format settings, ReFrames : 8 frames
Codec ID : V_MPEG4/ISO/AVC
Duration : 1h 31mn
Bit rate : 1 821 Kbps
Width : 1 056 pixels
Height : 440 pixels
Display aspect ratio : 2.40:1
Frame rate : 23.976 fps
Color space : YUV
Chroma subsampling : 4:2:0
Bit depth : 8 bits
Scan type : Progressive
Bits/(Pixel*Frame) : 0.163
Stream size : 1.14 GiB (78%)
Title : Vaippp
Writing library : x264 core 120 r2120kMod 0c7dab9
Encoding settings : cabac=1 / ref=8 / deblock=1:-2:-1 / analyse=0x3:0x113 / me=umh / subme=10 / psy=1 / fade_compensate=0.00 / psy_rd=1.00:0.00 / mixed_ref=1 / me_range=32 / chroma_me=1 / trellis=2 / 8x8dct=1 / cqm=0 / deadzone=21,11 / fast_pskip=0 / chroma_qp_offset=-1 / threads=12 / sliced_threads=0 / nr=0 / decimate=1 / interlaced=0 / bluray_compat=0 / constrained_intra=0 / bframes=8 / b_pyramid=2 / b_adapt=2 / b_bias=0 / direct=3 / weightb=1 / open_gop=0 / weightp=2 / keyint=250 / keyint_min=23 / scenecut=40 / intra_refresh=0 / rc_lookahead=40 / rc=2pass / mbtree=0 / bitrate=1821 / ratetol=1.0 / qcomp=0.75 / qpmin=0 / qpmax=69 / qpstep=4 / cplxblur=20.0 / qblur=0.5 / vbv_maxrate=40000 / vbv_bufsize=30000 / nal_hrd=none / ip_ratio=1.35 / pb_ratio=1.35 / aq=3:0.90 / zones=126641,132104,b=0.4
Language : English
Default : Yes
Forced : No
Matrix coefficients : BT.709-5, BT.1361, IEC 61966-2-4 709, SMPTE RP177
Audio
ID : 2
Format : AC-3
Format/Info : Audio Coding 3
Mode extension : CM (complete main)
Codec ID : A_AC3
Duration : 1h 31mn
Bit rate mode : Constant
Bit rate : 448 Kbps
Channel(s) : 6 channels
Channel positions : Front: L C R, Side: L R, LFE
Sampling rate : 48.0 KHz
Bit depth : 16 bits
Compression mode : Lossy
Stream size : 294 MiB (20%)
Title : DUB
Language : Russian
Default : Yes
Forced : Yes
Text #1
ID : 3
Format : UTF-8
Codec ID : S_TEXT/UTF8
Codec ID/Info : UTF-8 Plain Text
Language : Russian
Default : No
Forced : No
Text #2
ID : 4
Format : UTF-8
Codec ID : S_TEXT/UTF8
Codec ID/Info : UTF-8 Plain Text
Language : English
Default : No
Forced : No
Menu
00:00:00.000 : en:00:00:00.000
00:09:51.341 : en:00:09:51.341
00:20:22.763 : en:00:20:22.763
00:30:36.543 : en:00:30:36.543
00:40:56.996 : en:00:40:56.996
00:51:19.076 : en:00:51:19.076
01:00:55.777 : en:01:00:55.777
01:09:02.847 : en:01:09:02.847
01:22:35.576 : en:01:22:35.576
01:26:23.303 : en:01:26:23.303


ac5f879a18e7d77ce3b374935ae7de538e32eb48Пункт назначения 5 / Final Destination 5 (Стивен Куэйл / Steven Quale, ужасы, триллер, 2011) [BDRip-AVC, Профессиональный (полное дублирование) + Субтитры (eng, rus)] Пункт назначения 5 / Final Destination 5 (Стивен Куэйл / Steven Quale, ужасы, триллер, 2011) [BDRip-AVC, Профессиональный (полное дублирование) + Субтитры (eng, rus)] " />

Аплоадер: Админ, дата: 14-12-2011, 03:11, торрент скачан: 359 раз

Понравилась раздача? Посмотрите эти:
  • [3D] Пункт назначения 5 3D / Final Destination 5 3D (Стивен Куэйл, Ужасы, д ...
  • Пункт назначения: Пенталогия / Final Destination: Pentalogy (Джеймс Вонг, Д ...
  • Пункт назначения 5 / Final Destination 5 (Стивен Куэйл, ужасы, триллер, 201 ...
  • Пункт назначения 5 / Final Destination 5 (Стивен Куэйл, ужасы, триллер, 201 ...
  • Пункт назначения: Пенталогия / Final Destination: Pentalogy (Джеймс Вонг, Д ...
  • [3D] Пункт назначения 4 3Д / The Final Destination 3D (Дэвид Р. Эллис / Dav ...
  • [3D] Пункт назначения 5 3Д / Final Destination 5 3D (Стивен Куэйл / Steven ...
  • [3D] Пункт назначения 5 3Д / Final Destination 5 3D (Стивен Куэйл / Steven ...
  • [3D] Пункт назначения 5 / Final Destination 5 (Стивен Куэйл, ужасы, триллер ...
  • Пункт назначения 5 / Final Destination 5 (Стивен Куэйл, ужасы, триллер, 201 ...
  • Пункт назначения 5 / Final Destination 5 (Стивен Куэйл, ужасы, триллер, 201 ...
  • Пункт назначения 5 / Final Destination 5 (Стивен Куэйл, ужасы, триллер, 201 ...
  • [iPhone, iPod, iPad] Пункт назначения 5 / Final Destination 5 (Стивен Куэйл ...
  • Пункт назначения 4 / The Final Destination (Дэвид Р. Эллис, Ужасы, триллер, ...
  • Пункт назначения 4 / The Final Destination (Дэвид Р. Эллис, ужасы, 2009) [H ...
  • Пункт назначения 5 / Final Destination 5 (Стивен Куэйл, ужасы, триллер, 201 ...
  • Пункт назначения 5 / Final Destination 5 (Стивен Куэйл, триллер, криминал,2 ...
  • Пункт назначения 4 / Final Destination 4 (Дэвид Р. Эллис / David R. Ellis, ...
  • Пункт назначения 5 / Final Destination 5(режиссёр или актёр, жанр, год) [64 ...
  • [3D] Пункт назначения 5 / Final Destination 5 (Стивен Куэйл, ужасы, триллер ...
  • Информация
    Посетители, находящиеся в группе Гости, не могут оставлять комментарии к данной публикации.