вход на сайт

Имя пользователя :
Пароль :

Восстановление пароля Регистрация
Пятница 13-е / Friday the 13th (Маркус Ниспел / Marcus Nispel, ужасы, 2009) [HDRip, Профессиональный (дублированный)][Theatrical version]
Рейтинг:
(голосов: 1)



[img]{THEME}/images/logopost.png[/img]



Пятница 13-е / Friday the 13th


Год выпуска: 2009
Страна: США
Производство: Paramount Pictures
Жанр: ужасы

Режиссёр: Маркус Ниспел / Marcus Nispel
В ролях: Джаред Падалеки, Даниэль Панабэйкер, Аманда Ригетти, Трэвис Ван Винкль, Дерек Мирс, Аарон Йоо, Арлен Эскарпета, Джулианна Гилл

Перевод: Профессиональный (дублированный) (cтудия "Пифагор")
Субтитры: Нет

Описание: Молодые друзья Уитни, Майк, Ричи, Аманда и Уэйд заблудились в лесах около заброшенного лагеря «Хрустальное озеро». Когда их любопытство взяло верх, они решили посетить то место, где когда-то обитал убийца-психопат. Тем временем Трент приглашает друзей: Джену, Брии, Чеви, Челси, Лоуренса и Нолана в его хижину, расположенную у озера, на уикэнд, полный секса, выпивки и наркотиков.
Однако их забавный уикэнд, по-видимому, скоро перерастет в кошмар после того, как одинокий путешественник Клэй начинает поиски своей пропавшей сестры Уитни, и молодые тинейджеры вскоре оказываются лицом к лицу со злом, заново рожденным, невообразимым, и усовершенствованным, его имя Джейсон Вурхиз!



Качество: HDRip (исходник BDRip 1080p)
Продолжительность: 01:37:11

Формат: AVI
Видео кодек: XviD
Аудио кодек: MP3
Видео: 688x288 (2.39:1), 23.976 fps, XviD build 50 ~957 kbps avg, 0.20 bit/pixel
Аудио: 48 kHz, MPEG Layer 3, 2 ch, ~128.00 kbps avg
MediaInfo ▼TextFormat : AVI
Format/Info : Audio Video Interleave
File size : 761 MiB
Duration : 1h 37mn
Overall bit rate : 1 095 Kbps
Movie name : Ïÿòíèöà 13-å / Friday the 13th (2009) HDRip
Director : Rockboy
Writing application : VirtualDubMod 1.5.10.2 (build 2540/release)
Comment : Theatrical version
Video #0
ID : 0
Format : MPEG-4 Visual
Format profile : Advanced [email protected]
Format settings, BVOP : Yes
Format settings, QPel : No
Format settings, GMC : No warppoints
Format settings, Matrix : Default (MPEG)
Codec ID : XVID
Codec ID/Hint : XviD
Duration : 1h 37mn
Bit rate : 958 Kbps
Width : 688 pixels
Height : 288 pixels
Display aspect ratio : 2.35:1
Frame rate : 23.976 fps
Resolution : 8 bits
Colorimetry : 4:2:0
Scan type : Progressive
Bits/(Pixel*Frame) : 0.202
Stream size : 666 MiB (87%)
Writing library : XviD 1.2.1 (UTC 2008-12-04)
Audio #1
ID : 1
Format : MPEG Audio
Format version : Version 1
Format profile : Layer 3
Format_Settings_Mode : Joint stereo
Codec ID : 55
Codec ID/Hint : MP3
Duration : 1h 37mn
Bit rate mode : Constant
Bit rate : 128 Kbps
Channel(s) : 2 channels
Sampling rate : 48.0 KHz
Stream size : 89.0 MiB (12%)
Alignment : Aligned on interleaves
Interleave, duration : 42 ms (1.00 video frame)
Interleave, preload duration : 504 ms
Writing library : LAME3.93
Encoding settings : -m j -V 4 -q 0 -lowpass 15.3 -b 128


Наши рипы / Набор в РГ/Стол заказов РГ / Стол заказов по РИПам



7acc8a3b5ef00061f527cdf5e9ca6c00a209547cПятница 13-е / Friday the 13th (Маркус Ниспел / Marcus Nispel, ужасы, 2009) [HDRip, Профессиональный (дублированный)][Theatrical version] Пятница 13-е / Friday the 13th (Маркус Ниспел / Marcus Nispel, ужасы, 2009) [HDRip, Профессиональный (дублированный)][Theatrical version] " />

Аплоадер: Админ, дата: 3-11-2011, 22:04, торрент скачан: 359 раз

Понравилась раздача? Посмотрите эти:
  • Пятница 13-е / Friday the 13th (Маркус Ниспел, Ужасы, 2009) [BDRip, Дубляж, ...
  • Пятница 13-е / Friday the 13th (Маркус Ниспел, Ужасы, 2009) [BDRip-AVC, Дуб ...
  • Скуби-Ду! Маска Синего Сокола / Scooby-Doo! Mask Of The Blue Falcon (Оливье ...
  • Новые парни турбо / New Kids Turbo (Штефен Хаарс, Боевик, комедия, 2010) [H ...
  • Пятница 13-е / Friday the 13th [Расширенная версия/Extended Killer Cut] (Ма ...
  • Формула 1 2011 / Этап 17 из 19 / Гран-При Индии / Гонка / Спорт 1 [30.10.20 ...
  • Чемпионат Европы 2012 / Группа C / 1-й тур / Ирландия — Хорватия / ТРК Футб ...
  • Чемпионат Европы 2012 / Группа D / 1-й тур / Украина - Швеция / Спорт 1 [11 ...
  • Tank Feat. T.I. & Kris Stephens / Compliments [2012, RnB,Hip-Hop, HDRip]
  • Пятница 13-е / Friday the 13th [Killer Cut](Маркус Ниспел /Marcus Nispel/,У ...
  • Неделя в NBA с В.Гомельским / НТВ+ [28.06.2011, SD, XviD, RU, SAT]
  • Задание / The Task (Алекс Оруэлл, Ужасы, 2010) [HDRip, Профессиональный (мн ...
  • Ключ от всех дверей / The Skeleton Key (Иэн Софтли, ужасы, 2005) [HDRip, Ду ...
  • Военные игры / War Games: At the End of the Day(Козимо Алема, Триллер, Ужас ...
  • Романтики / The Romantics (Галт Нидерхоффер, Драма, мелодрама, комедия, 201 ...
  • Мисс Март / Miss March (Тревор Мур, Комедия, 2009) [HDRip, Профессиональный ...
  • Чемпионат Европы 2012 / Группа B / 1-й тур / Германия - Португалия / Спорт ...
  • Товарищеский матч 2012 / АмаЗулу (ЮАР) - Манчестер Юнайтед (Англия) / MU TV ...
  • Олимпиада 2012 / Женщины, Мужчины / Плавание / Квалификация / НТВ+ [30.07.2 ...
  • Искажение / Skew (Сейв Челенз, ужасы, триллер, 2011) [HDRip, Профессиональн ...
  • Информация
    Посетители, находящиеся в группе Гости, не могут оставлять комментарии к данной публикации.