вход на сайт

Имя пользователя :
Пароль :

Восстановление пароля Регистрация
Ловчий смерти / Death Hunter (Дастин Рикерт, Ужасы, 2010) [DVDRip, Профессиональное (многоголосое) ]
Рейтинг:
(голосов: 1)



[img]{THEME}/images/logopost.png[/img]



Ловчий смерти/ Death Hunter


Год выпуска: 2010
Страна: США
Производство: Sunstorm Motion Pictures
Жанр: Ужасы

Режиссёр: Дастин Рикерт
В ролях: Луис Гузман, Эрин Карплак...

Перевод: Профессиональное (многоголосое) [лицензия]

Субтитры: Отсутствуют
Описание
Люди, попавшие в эту пустыню, пропадают, исчезают бесследно. Местные жители говорят разное, многие утверждают, что виной всему вампиры, обитающие в этих краях. Джон и Мария, путешествуя на своем автомобиле и пропустив нужный поворот, в поисках бензина и ночлега вынуждены остановиться в каком-то баре посреди бескрайней пустыни. Здесь и закончилась их прежняя жизнь. Чудом вырвавшись из вампирских клыков и потеряв жену, Джон, четыре недели находившийся в беспамятстве и возвращенный к жизни отшельником-одиночкой, становится другим. И этот другой, новый Джон, получивший новые нечеловеческие способности, начинает войну с теми, кто украл у него все.



Тех. данные
Качество: DVDRip
Продолжительность: 01:31:33

Формат: AVI
Видео кодек: XviD
Аудио кодек: AC3
Видео: 720x400 (1.80:1), 25 fps, XviD build 50 ~1757 kbps avg, 0.24 bit/pixel
Аудио: 48 kHz, AC3 Dolby Digital, 3/2 (L,C,R,l,r) + LFE ch, ~384 kbps
Mediainfo ▼Text
Полное имя : C:Documents and SettingsAdministratorDesktop/lov4ii smerti.2010.DVDRip.XviD..avi
Формат : AVI
Формат/Информация : Audio Video Interleave
Размер файла : 1,38 Гбайт
Продолжительность : 1 ч. 31 м.
Общий поток : 2151 Кбит/сек
Программа кодирования : VirtualDubMod 1.5.10.3 | www.virtualdub-fr.org || (build 2550/release)
Библиотека кодирования : VirtualDubMod build 2550/release

Видео
Идентификатор : 0
Формат : MPEG-4 Visual
Профиль формата : Advanced [email protected]
Параметр BVOP формата : 2
Параметр QPel формата : Нет
Параметр GMC формата : Без точки перехода
Параметр матрицы формата : Default (MPEG)
Идентификатор кодека : XVID
Идентификатор кодека/Подсказка : XviD
Продолжительность : 1 ч. 31 м.
Битрейт : 1757 Кбит/сек
Ширина : 720 пикс.
Высота : 400 пикс.
Соотношение сторон : 16:9
Частота кадров : 25,000 кадр/сек
Цветовое пространство : YUV
Подвыборка цветности : 4:2:0
Битовая глубина : 8 бит
Тип развёртки : Прогрессивная
Метод сжатия : С потерями
Бит/(Пиксели*Кадры) : 0.244
Размер потока : 1,12 Гбайт (82%)
Библиотека кодирования : XviD 1.2.1 (UTC 2008-12-04)

Аудио
Идентификатор : 1
Формат : AC-3
Формат/Информация : Audio Coding 3
Расширение режима : CM (complete main)
Идентификатор кодека : 2000
Продолжительность : 1 ч. 31 м.
Вид битрейта : Постоянный
Битрейт : 384 Кбит/сек
Канал(ы) : 6 канала(ов)
Расположение каналов : Front: L C R, Side: L R, LFE
Частота : 48,0 КГц
Битовая глубина : 16 бит
Метод сжатия : С потерями
Размер потока : 251 Мбайт (18%)
Выравнивание : Разделение по промежуткам
Продолжительность промежутка : 40 мс. (1,00 видеокадр)
Время предзагрузки промежутка : 500 msПремьера ▼ премьера (мир) - 24 мая 2011
релиз на DVD - 6 октября 2011, «Новый Диск»


|Cтол заказов| Наши раздачи| Набор в группу| Сказать спасибо|


cbc6a99925bb2032a4d8a5daf54942e5d9408b0dЛовчий смерти / Death Hunter (Дастин Рикерт, Ужасы, 2010) [DVDRip, Профессиональное (многоголосое) ] Ловчий смерти / Death Hunter (Дастин Рикерт, Ужасы, 2010) [DVDRip, Профессиональное (многоголосое) ] " />

Аплоадер: Админ, дата: 16-10-2011, 21:18, торрент скачан: 359 раз

Понравилась раздача? Посмотрите эти:
  • Околофутбола (Антон Борматов, драма, криминал, 2013) [DVDRip, Не требуется] ...
  • Даю год / I Give It a Year (Дэн Мазер, Мелодрама, комедия, 2013) [DVDRip, Д ...
  • Невиновный / The Wronged Man (Том Маклафлин, драма, биография, 2010) [DVDRi ...
  • Группа риска / At Risk (Том Маклафлин, криминал, детектив, 2010) [DVDRip, П ...
  • Электра Luxx / Elektra Luxx (Себастьян Гутьеррес, Джозеф Гордон-Левитт, Ком ...
  • Витчвилль / Witchville (Тео Пирри / Pearry Reginald Teo, фантастика, 2010) ...
  • Глушь / Resurrection County (Матт Зеттел, Ужасы,триллер, 2008) [DVDRip, Про ...
  • Гриффины: Это ловушка! / Family Guy: Its a Trap! (Питер Шин, мультфильм, фа ...
  • Отбой / Taps (Харольд Беккер, Драма, 1981) [DVDRip, Профессиональный (много ...
  • Путешествие на дно моря / Voyage to the Bottom of the Sea (Ирвин Аллен / I ...
  • Кажется, я люблю свою жену / I Think I Love My Wife (Крис Рок, Драма, мелод ...
  • Кошмар / Nightmare / Qing Yan (Херман Яу, ужасы, триллер, 2012) [DVDRip, Лю ...
  • Многоженец / Poligamy (Динеш Орос, комедия, мелодрама, 2009) [DVDRip, Профе ...
  • Темный мститель / Passed the Door of Darkness (Питер Мервис, триллер, 2008) ...
  • Детский душ / Baby Shower (Pablo Illanes, Ужасы, 2011) [DVDRip, Любительски ...
  • Привет, Джули! / Flipped (Роб Райнер, драма, мелодрама, комедия , 2010) [HD ...
  • Дневник слабака 2 / Diary of a Wimpy Kid: Rodrick Rules (Дэвид Бауэрс, коме ...
  • Совсем не бабник / Cedar Rapids (Мигель Артета,комедия,2011) [HDRip,Професс ...
  • Совсем не бабник / Cedar Rapids (Мигель Артета,комедия,2011) [HDRip,Професс ...
  • Жизнь за брата / The Heavy (Маркус Уоррен, триллер, 2010) [DVDRip, Професси ...
  • Челюсти 3D / Shark Night 3D (Дэвид Р. Эллис, ужасы, триллер, 2011) [HDRip, ...
  • Только спокойствие / Stay Cool (Майкл Полиш, комедия, 2009) [HDrip, Професс ...
  • Фабрика смерти / Death Factory (Брэд Сайкес, Ужасы, 2002) [DVDRip, Професси ...
  • Человек из банки (Иван Кульнев, Комедия, 2012) [DVDRip, Не требуется]
  • Сдохни, Джон Такер / John Tucker Must Die (Бетти Томас, мелодрама, комедия, ...
  • Информация
    Посетители, находящиеся в группе Гости, не могут оставлять комментарии к данной публикации.