вход на сайт

Имя пользователя :
Пароль :

Восстановление пароля Регистрация
В лесу / The Forest (Шан Серафин, ужасы, триллер , 2011) [SATRip, Профессиональный (двухголосый закадровый)]
Рейтинг:
(голосов: 1)



[img]{THEME}/images/logopost.png[/img]



В лесу / The Forest

Год выпуска: 2011
Страна: США
Производство: 611 Films
Жанр: ужасы, триллер

Режиссёр: Шан Серафин
В ролях: Фарид Поргадири, Кайл Ларднер, Майкл Мэдсен, Джонни Янг, Christina Myhr, Лиза Каллен,Сонни Саито, Сатоши Мацуока, Кеи Хираяма, Хазуки Като

Перевод: Профессиональный (двухголосый закадровый)
Субтитры: нет

Описание:
Модель-американка, не выдержав расставания со своим бойфрендом, покончила с собой в лесу самоубийц у подножия Фудзиямы. Но ее дух продолжает жестоко мстить всем, кто способствовал ее расставанию с другом.

IMDB: 6.80 (6)

КиноПоиск: 7.200 (10)Качество: SATRip
Продолжительность: 01:30:47

Формат: AVI
Видео кодек: Xvid
Аудио кодек: MPEG Layer 3
Видео: 704x400 (1.76:1), 25 fps, ~877 kbps avg, 0.125bit/pixel
Аудио: 48 kHz, MP3, 2 ch, ~192 kbps


"MediInfo" ▼TextОбщее
Полное имя : D:ФильмThe Forest.SATRip.avi
Формат : AVI
Формат/Информация : Audio Video Interleave
Размер файла : 703 Мбайт
Продолжительность : 1 ч. 30 м.
Общий поток : 1082 Кбит/сек
Программа кодирования : MEncoder UNKNOWN-4.2.4
Библиотека кодирования : MPlayer

Видео
Идентификатор : 0
Формат : MPEG-4 Visual
Профиль формата : [email protected]
Параметр BVOP формата : Нет
Параметр QPel формата : Нет
Параметр GMC формата : Без точки перехода
Параметр матрицы формата : Default (H.263)
Идентификатор кодека : XVID
Идентификатор кодека/Подсказка : XviD
Продолжительность : 1 ч. 30 м.
Битрейт : 877 Кбит/сек
Ширина : 704 пикселя
Высота : 400 пикселей
Соотношение сторон : 16:9
Частота кадров : 25,000 кадров/сек
Цветовое пространство : YUV
Субдискретизация насыщенности : 4:2:0
Битовая глубина : 8 бит
Тип развёртки : Прогрессивная
Метод сжатия : С потерями
Бит/(Пиксели*Кадры) : 0.125
Размер потока : 570 Мбайт (81%)
Библиотека кодирования : XviD 1.2.1 (UTC 2008-12-04)

Аудио
Идентификатор : 1
Формат : MPEG Audio
Версия формата : Version 1
Профиль формата : Layer 3
Режим : Joint stereo
Расширение режима : MS Stereo
Идентификатор кодека : 55
Идентификатор кодека/Подсказка : MP3
Продолжительность : 1 ч. 30 м.
Вид битрейта : Постоянный
Битрейт : 192 Кбит/сек
Каналы : 2 канала
Частота : 48,0 КГц
Метод сжатия : С потерями
Размер потока : 125 Мбайт (18%)
Выравнивание : Соединение по промежуткам
Продолжительность промежутка : 24 мс. (0,60 видеокадр)


|Cтол заказов| Наши раздачи| Набор в группу| Сказать спасибо|



22780f2b34d9695b8c5121761d6ebb5646566984В лесу / The Forest (Шан Серафин, ужасы, триллер , 2011) [SATRip, Профессиональный (двухголосый закадровый)] В лесу / The Forest (Шан Серафин, ужасы, триллер , 2011) [SATRip, Профессиональный (двухголосый закадровый)] " />

Аплоадер: Админ, дата: 30-09-2011, 22:01, торрент скачан: 359 раз

Понравилась раздача? Посмотрите эти:
  • Слежка / The Letter (Джей Ананья, Триллер, драма, 2012) [DVDRip, Профессион ...
  • Астрал на улице Арлетт / 388 Arletta Avenue (Рэндолл Коул, Триллер, 2011) [ ...
  • Глушь / Resurrection County (Матт Зеттел, Ужасы,триллер, 2008) [DVDRip, Про ...
  • Злые птицы: Хэллоуин / Angry Birds: HamOWeen (Джей Ройвайнен, Мультфильм, к ...
  • Вечерний Ургант // Сезон 2. Выпуск 56 (ТВ-шоу, 11.12.2012) [SATRip, Не треб ...
  • Бог любви / God of Love (Люк Мэзени, Короткометражка, фэнтези, комедия, мел ...
  • Вечерний Ургант // Сезон 2. Выпуск 62 (ТВ-шоу, 19.12.2012) [SATRip, Не треб ...
  • Вечерний Ургант // Сезон 2. Выпуск 63 (ТВ-шоу, 20.12.2012) [SATRip, Не треб ...
  • Кейси Джонс / Casey Jones (Иларион Бэнкс, Короткометражка, фэнтези, боевик, ...
  • Заместитель / Il supplente (Андреа Жублин, Короткометражка, комедия, 2007) ...
  • Вечерний Ургант // Сезон 2. Выпуск 64 (ТВ-шоу, 21.12.2012) [SATRip, Не треб ...
  • Вечерний Ургант // Сезон 2. Выпуск 66 (ТВ-шоу, 25.12.2012) [SATRip, Не треб ...
  • Вечерний Ургант // Сезон 2. Выпуск 68 (ТВ-шоу, 27.12.2012) [SATRip, Не треб ...
  • Дорога на... / Road to (Таисия Игуменцева, Комедия, короткометражный, 2011) ...
  • Покорить высоту / Take It to the Limit (Сэм Кит / Sam Kieth, семейный, 2000 ...
  • Светлячок. Воссоединение Коричневых плащей к 10 годовщине / Firefly 10th An ...
  • А что насчет тебя? / How About You (Энтони Бирн, Драма, комедия, 2007) [DVD ...
  • У дьявола нет лица / Plasterhead (Кевин Хиггинс / Kevin Higgins, ужасы, три ...
  • Брат якудзы / Brother (Такеши Китано, триллер, драма, криминал, 2000) [HDRi ...
  • Отдам котят в хорошие руки (Александр Баршак, комедия, 2012)[SATRip, не тре ...
  • Детский душ / Baby Shower (Pablo Illanes, Ужасы, 2011) [DVDRip, Любительски ...
  • Пожирая живых / Ночь зомби / Zombie Night (Дэвид Дж. Фрэнсис, Ужасы, комеди ...
  • Pitbull / Bon Bon [2010, Pop, HDRip]
  • Развод по-русски. Выпуск №78. Трагедии звездных семей (Документальный,телеп ...
  • Бюро находок : Потерянный и найденный / Lost and Found (Филип Хант, коротко ...
  • Информация
    Посетители, находящиеся в группе Гости, не могут оставлять комментарии к данной публикации.