вход на сайт

Имя пользователя :
Пароль :

Восстановление пароля Регистрация
Задание / The Task (Алекс Оруэлл, Ужасы, 2010) [HDRip, Профессиональный (многоголосый, закадровый))[Лицензия]]
Рейтинг:
(голосов: 1)



[img]{THEME}/images/logopost.png[/img]



Задание / The Task
«Реалити шоу для частного просмотра»
Год выпуска: 2010
Страна: США
Производство: After Dark Films
Жанр:ужасы

Режиссёр: Алекс Оруэлл
В ролях: Александра Стаден, Виктор МакГуайр, Адам Рэйнер, Антония Кэмпбелл-Хьюджес, Эшли Мулрон, Амара Каран, Том Пэйн, Марк Пикеринг, Тексас Бэттл, Сэм Стокман

Перевод: Профессиональный (многоголосый, закадровый) [лицензия]
Субтитры: Отсутсвуют

Новое реалити-шоу под названием «Задание» вынуждает шестерых молодых участников выполнять квесты, находясь на территории заброшенной тюрьмы. Понятно, что за большой денежный выигрыш они вскоре будут готовы перегрызть друг другу глотки прямо в прямом эфире, чем искусно пользуется неизвестный, устроивший им ночь ТВ-террора…

IMDB: 3.9/10 (324 голосов)
КиноПоиск: 4.449 (408 голоса)

Качество: HDRip
Продолжительность:01:34:28

Формат: AVI
Видео кодек: XviD
Аудио кодек: MP3
Видео: 640x352 (16:9), 23.976 fps, DivX Codec 909 kbps avg, 0.168 bit/pixel
Аудио: 48 kHz, MPEG Layer 3, 2 ch, ~112.00 kbps avg

Media Info ▼TextC:Users*PicturesDownloadsZadanie.2010.P.HDRip.700MB.avi
General
Complete name : C:Users**PicturesDownloadsZadanie.2010.P.HDRip.700MB.avi
Format : AVI
Format/Info : Audio Video Interleave
File size : 697 MiB
Duration : 1h 34mn
Overall bit rate : 1 031 Kbps
Writing application : VirtualDubMod 1.5.10.2 (build 2540/release)
Writing library : VirtualDubMod build 2540/release
Video #0
ID : 0
Format : MPEG-4 Visual
Format profile : [email protected]
Format settings, BVOP : Yes
Format settings, QPel : No
Format settings, GMC : No warppoints
Format settings, Matrix : Default (H.263)
Codec ID : XVID
Codec ID/Hint : XviD
Duration : 1h 34mn
Bit rate : 910 Kbps
Width : 640 pixels
Height : 352 pixels
Display aspect ratio : 16:9
Frame rate : 23.976 fps
Resolution : 24 bits
Colorimetry : 4:2:0
Scan type : Progressive
Bits/(Pixel*Frame) : 0.168
Stream size : 615 MiB (88%)
Writing library : XviD 58
Audio #1
ID : 1
Format : MPEG Audio
Format version : Version 1
Format profile : Layer 3
Codec ID : 55
Codec ID/Hint : MP3
Duration : 1h 34mn
Bit rate mode : Constant
Bit rate : 112 Kbps
Channel(s) : 2 channels
Sampling rate : 48.0 KHz
Resolution : 16 bits
Stream size : 75.7 MiB (11%)
Alignment : Aligned on interleaves
Interleave, duration : 42 ms (1.00 video frame)
Interleave, preload duration : 504 ms
Writing library : LAME3.98 (alpha)




b84a183eba86090deafcd190e8eecd2c83e3bea3Задание / The Task (Алекс Оруэлл, Ужасы, 2010) [HDRip, Профессиональный (многоголосый, закадровый))[Лицензия]] Задание / The Task (Алекс Оруэлл, Ужасы, 2010) [HDRip, Профессиональный (многоголосый, закадровый))[Лицензия]] " />

Аплоадер: Админ, дата: 1-09-2011, 12:35, торрент скачан: 359 раз

Понравилась раздача? Посмотрите эти:
  • Погнали! / Getaway (Кортни Соломон, Боевик,Криминал, 2013) [HDRip, Професси ...
  • Посылка / The Package (Джесси Джонсон, боевик, 2013) [HDRip, Профессиональн ...
  • Мэрайа Мунди и шкатулка Мидаса / The Adventurer: The Curse of the Midas Box ...
  • 12 раундов: Перезагрузка / 12 Rounds: Reloaded (Роэль Рейн, Боевик, 2013) [ ...
  • Скуби-Ду! Маска Синего Сокола / Scooby-Doo! Mask Of The Blue Falcon (Оливье ...
  • Заточка / Shank (Мо Али, фантастика, боевик, 2010) [HDRip, Многоголосый зак ...
  • [EN] Команда: На пути Аллаха / Takiye: Allah yolunda (2010, Бен Вербонг, тр ...
  • Новые парни турбо / New Kids Turbo (Штефен Хаарс, Боевик, комедия, 2010) [H ...
  • Без всего / Sin ella (Джордже Колон, Мелодрама, 2010) [HDTVRip , Профессион ...
  • Формула 1 2011 / Этап 17 из 19 / Гран-При Индии / Гонка / Спорт 1 [30.10.20 ...
  • Tank Feat. T.I. & Kris Stephens / Compliments [2012, RnB,Hip-Hop, HDRip]
  • Маленький Николя / Le Petit Nicolas ( Лорен Тирар,комедия, семейный,2009 ) ...
  • Яркая звезда / Bright Star (Джейн Кэмпион / Jane Campion) [2009, Биографиче ...
  • Неделя в NBA с В.Гомельским / НТВ+ [28.06.2011, SD, XviD, RU, SAT]
  • Мистер Ганджубас / Mr. Nice (Бернард Роуз, Драма, комедия, 2010)[HDRip, Про ...
  • Военные игры / War Games: At the End of the Day(Козимо Алема, Триллер, Ужас ...
  • Романтики / The Romantics (Галт Нидерхоффер, Драма, мелодрама, комедия, 201 ...
  • Ужасный способ умереть / A Horrible Way to Die (Адам Вингард, ужасы, трилле ...
  • Полусвет / Half Light (Крэйг Розенберг, Ужасы, триллер, драма, детектив, 20 ...
  • Замёрзший мир / 2012: Ice Age (Трэвис Форт, фантастика, боевик, 2011) [HDRi ...
  • День второй: Битва за Нью-Йорк / Battle: New York, Day 2 (Эндрю Беллвар, фа ...
  • Инкубус / Inkubus (Гленн Чиано, Ужасы, 2011) [DVDRip, Профессиональный (мно ...
  • Глушь / Resurrection County (Matt Zettell, ужасы, триллер, 2008) [DVDRip, П ...
  • Искажение / Skew (Сейв Челенз, ужасы, триллер, 2011) [HDRip, Профессиональн ...
  • Ничего, кроме правды / Nothing But the Truth (Род Лури, триллер, драма, 200 ...
  • Информация
    Посетители, находящиеся в группе Гости, не могут оставлять комментарии к данной публикации.