вход на сайт

Имя пользователя :
Пароль :

Восстановление пароля Регистрация
Детский душ / Baby Shower (Pablo Illanes, Ужасы, 2011) [DVDRip, Любительский (двухголосый, закадровый)]
Рейтинг:
(голосов: 1)



[img]{THEME}/images/logopost.png[/img]



Детский душ / Baby Shower
«Террор вот-вот родится»


Год выпуска: 2011
Страна: Испания
Производство: Banco Estado
Жанр: Ужасы

Режиссёр: Пабло Илланес
В ролях: Николс Алонсо, Клаудиа Бурр, Софыя Гарха, Блваро Джимес, Джойс Илланес, Ренато Илланес

Перевод: Любительский, (двухголосый)
Субтитры: Нет

Описание: Четыре бывшие одноклассницы собираются в загородном доме, чтобы отпраздновать беременность одной из них…



Сэмпл
Трейлер

Качество: DVDRip
Продолжительность: 01:31:52

Формат: AVI
Видео кодек: XviD
Аудио кодек: MP3
Видео: 624x336 (1.86:1), 29.970 fps, XviD MPEG-4 ~926 kbps avg, 0.15 bit/pixel
Аудио: 48 kHz, MPEG Layer 3, 2 ch, ~128.00 kbps avg

Дата премьеры (мир): 13 января 2011

MediaInfo ▼TextФормат: AVI
Формат/Информация: Audio Video Interleave
Размер файла: 701 Мбайт
Продолжительность: 1 ч. 31 м.
Общий поток: 1066 Кбит/сек
Программа кодирования: VirtualDubMod 1.5.4.1 (build 2178/release)
Библиотека кодирования: VirtualDubMod build 2178/release

Видео
Идентификатор: 0
Формат: MPEG-4 Visual
Профиль формата: Advanced [email protected]
Параметр BVOP формата: 2
Параметр QPel формата: Нет
Параметр GMC формата: Без точки перехода
Параметр матрицы формата: Default (MPEG)
Режим смешивания: Сжатый битовый поток
Идентификатор кодека: XVID
Идентификатор кодека/Подсказка: XviD
Продолжительность: 1 ч. 31 м.
Битрейт: 927 Кбит/сек
Ширина: 624 пикс.
Высота: 336 пикс.
Соотношение сторон: 1,857
Частота кадров: 29,970 кадр/сек
Цветовое пространство: YUV
Подвыборка цветности: 4:2:0
Битовая глубина: 8 бит
Тип развёртки: Прогрессивная
Метод сжатия: С потерями
Бит/(Пиксели*Кадры): 0.147
Размер потока: 609 Мбайт (87%)
Библиотека кодирования: XviD 58

Аудио
Идентификатор: 1
Формат: MPEG Audio
Версия формата: Version 1
Профиль формата: Layer 3
Идентификатор кодека: 55
Идентификатор кодека/Подсказка: MP3
Продолжительность: 1 ч. 31 м.
Вид битрейта: Постоянный
Битрейт: 128 Кбит/сек
Канал(ы): 2 канала(ов)
Частота: 48,0 КГц
Метод сжатия: С потерями
Размер потока : 84,1 Мбайт (12%)
Выравнивание : Соединение по промежуткам
Продолжительность промежутка : 33 мс. (1,00 видеокадр)
Время предзагрузки промежутка : 504 ms
Библиотека кодирования : LAME3.98r
Настройки программы : -m s -V 4 -q 7 -lowpass 17 -b 128




11afdcbe66c17c04477d99c61d257fa460de6b75Детский душ / Baby Shower (Pablo Illanes, Ужасы, 2011) [DVDRip, Любительский (двухголосый, закадровый)] Детский душ / Baby Shower (Pablo Illanes, Ужасы, 2011) [DVDRip, Любительский (двухголосый, закадровый)] " />

Аплоадер: Админ, дата: 10-04-2011, 11:47, торрент скачан: 359 раз

Понравилась раздача? Посмотрите эти:
  • Это - Англия. Год 1986 / This Is England 86 // Сезон 1, эпизоды с 1 по 4 (и ...
  • Молчание Жанны / Jeanne captive (Филипп Рамос, Драма, история, 2011) [SATRi ...
  • Сказки о древней империи / Tales of an Ancient Empire (Альберт Пьюн, приклю ...
  • Архитектор / Der Architekt (Ина Вайсе, Драма, 2008) [DVDRip, Любительский ( ...
  • Блинки: Плохой робот / BlinkyTM (Рори Робинсон, короткометражка, ужасы, фан ...
  • Злые птицы: Хэллоуин / Angry Birds: HamOWeen (Джей Ройвайнен, Мультфильм, к ...
  • Киддо - супергрузовичок / Kiddo The Super Truck (Д. Нэйр, Мультфильм, 2002) ...
  • Бог любви / God of Love (Люк Мэзени, Короткометражка, фэнтези, комедия, мел ...
  • Любовь по расписанию / Поезд (Сергей Мезенцев, мелодрама, 2012) [HDTVRip, Н ...
  • Кейси Джонс / Casey Jones (Иларион Бэнкс, Короткометражка, фэнтези, боевик, ...
  • Заместитель / Il supplente (Андреа Жублин, Короткометражка, комедия, 2007) ...
  • Дорога на... / Road to (Таисия Игуменцева, Комедия, короткометражный, 2011) ...
  • Покорить высоту / Take It to the Limit (Сэм Кит / Sam Kieth, семейный, 2000 ...
  • Американские бандиты: Френк и Джесси Джеймс / American Bandits: Frank and J ...
  • Сопротивление / Beatdown (Майк Гюнтер, боевик, 2010) [DVDRip, Любительский ...
  • Гениальный ребенок: Цвета и формы / Brainy Baby (Дэннис Федорук, детский-о ...
  • Гениальный ребенок: Музыка / Brainy Baby: Music (Дэннис Федорук, детский об ...
  • В лесу / The Forest (Шан Серафин, ужасы, триллер , 2011) [SATRip, Профессио ...
  • Челюсти 3D / Shark Night 3D (Дэвид Р. Эллис, ужасы, триллер, 2011) [HDRip, ...
  • Ловцы забытых голосов / Hoshi wo Ou Kodomo (2011) [HDRip, любительский (одн ...
  • [BBC] Гейша / Geisha girl (Документальный, 2005) [TVRip, Профессиональный ( ...
  • Пожирая живых / Ночь зомби / Zombie Night (Дэвид Дж. Фрэнсис, Ужасы, комеди ...
  • Фабрика смерти / Death Factory (Брэд Сайкес, Ужасы, 2002) [DVDRip, Професси ...
  • Дневники мотылька / The Moth Diaries (Мэри Хэррон, ужасы, драма, 2011) [DVD ...
  • Бюро находок : Потерянный и найденный / Lost and Found (Филип Хант, коротко ...
  • Информация
    Посетители, находящиеся в группе Гости, не могут оставлять комментарии к данной публикации.