вход на сайт

Имя пользователя :
Пароль :

Восстановление пароля Регистрация
Возмездие Эрпа / Wyatt Earps Revenge (Майкл Фейфер, драма, 2012) [DVDRip, Профессиональный (многоголосый, закадровый)]
Рейтинг:
(голосов: 1)



[img]{THEME}/images/logopost.png[/img]



Возмездие Эрпа / Wyatt Earps Revenge

Год выпуска: 2012
Страна: США
Производство: Feifer Worldwide
Жанр: Драма

Режиссёр: Майкл Фейфер
В ролях: Вэл Килмер, Шоун Робертс, Мэтт Даллас, Дэниэл Буко, Скотт Уайт, Стивен Грейхм, Levi Fiehler, Трэйси Д. Эдкинс, Diana DeGarmo, Брайан Гро

Перевод: Профессиональный (многоголосый, закадровый) [Лицензия]
Субтитры:Нет

Описание
Экшен — вестерн, основанный на реальной истории легенды Дикого Запада — стража порядка Уайетта Эрпа, который сталкивается с трагической гибелью своей возлюбленной Доры и решает за нее отомстить.
Вместе со своими верными друзьями — прославленными Бэтом Мастерсоном, Чарли Бассеттом, Биллом Тилгменом и Доком Холлидеем — Эрп пускается в погоню за безжалостными братьями Кенеди, чинящими ради забавы расправу над невинными людьми на своем пути от Додж — Сити к Мексике.
Находясь под протекцией влиятельного отца, кровожадные братья не сомневаются, что останутся безнаказанными, однако они недооценивают своего врага и его жажду мести.



Доп. информация
Премьеры ▼Премьера (мир) 6 марта 2012

Mediainfo ▼TextE:CinemaВозмездие Эрпа.avi
General
Complete name : E:CinemaВозмездие Эрпа.avi
Format : AVI
Format/Info : Audio Video Interleave
File size : 745 MiB
Duration : 1h 28mn
Overall bit rate : 1 172 Kbps
Writing application : VirtualDubMod 1.5.10.3 | www.virtualdub-fr.org || (build 2550/release)
Writing library : VirtualDubMod build 2550/release
Video #0
ID : 0
Format : MPEG-4 Visual
Format profile : Advanced [email protected]
Format settings, BVOP : 1
Format settings, QPel : No
Format settings, GMC : No warppoints
Format settings, Matrix : Custom
Codec ID : XVID
Codec ID/Hint : XviD
Duration : 1h 28mn
Bit rate : 1 035 Kbps
Width : 688 pixels
Height : 384 pixels
Display aspect ratio : 16:9
Frame rate : 25.000 fps
Color space : YUV
Chroma subsampling : 4:2:0
Bit depth : 8 bits
Scan type : Progressive
Compression mode : Lossy
Bits/(Pixel*Frame) : 0.157
Stream size : 658 MiB (88%)
Writing library : XviD 64
Audio #1
ID : 1
Format : MPEG Audio
Format version : Version 1
Format profile : Layer 3
Codec ID : 55
Codec ID/Hint : MP3
Duration : 1h 28mn
Bit rate mode : Constant
Bit rate : 128 Kbps
Channel(s) : 2 channels
Sampling rate : 48.0 KHz
Compression mode : Lossy
Stream size : 81.3 MiB (11%)
Alignment : Aligned on interleaves
Interleave, duration : 40 ms (1.00 video frame)
Interleave, preload duration : 504 ms
Writing library : LAME3.99.1[/ code]

Тех. данные
Качество: DVDRip
Продолжительность: 01:28:51

Формат: AVI
Видео кодек: XviD
Аудио кодек: MP3
Видео: 688x384 (1.79:1), 25 fps, XviD build 64 ~1034 kbps avg, 0.16 bit/pixel
Аудио: 48 kHz, MPEG Layer 3, 2 ch , ~128.00 kbps avg


|Cтол заказов| Наши раздачи| Набор в группу| Сказать спасибо|


30afd22b6850652c21ad1ea464027632cd2e5ee0Возмездие Эрпа / Wyatt Earps Revenge (Майкл Фейфер, драма, 2012) [DVDRip, Профессиональный (многоголосый, закадровый)] Возмездие Эрпа / Wyatt Earps Revenge (Майкл Фейфер, драма, 2012) [DVDRip, Профессиональный (многоголосый, закадровый)] " />

Аплоадер: Админ, дата: 5-04-2012, 18:30, торрент скачан: 359 раз

Понравилась раздача? Посмотрите эти:
  • Погнали! / Getaway (Кортни Соломон, Боевик,Криминал, 2013) [HDRip, Професси ...
  • Вирус / Flu (Ким Сон Су, Драма, 2013) [HDTVRip, Любительский (двухголосый з ...
  • Орудие смерти / A-i-deul... (Ли Гю Ман, Триллер, криминал, 2011) [DVDRip, П ...
  • Мэрайа Мунди и шкатулка Мидаса / The Adventurer: The Curse of the Midas Box ...
  • Мужество / Wymyk (Грег Зглински, драма, 2011) [DVDRip, Любительский (одного ...
  • Решала (Роман Асхаев, Драма,Криминал, 2012) [WEB-DLRip, Не требуется]
  • Лучший стрелок / Top Gun (Тони Скотт, боевик, драма, мелодрама, 1986) [BDRi ...
  • Возмездие Эрпа / Wyatt Earps Revenge (Майкл Фейфер, драма, 2012) [DVDRip, П ...
  • Возмездие Эрпа / Wyatt Earps Revenge (Майкл Фейфер, драма, 2012) [DVDRip-AV ...
  • Захват / Carjacked (Джон Бонито, триллер, 2011)[BDRip, Профессиональный (мн ...
  • Чемпионат Европы 2012 / Группа C / 1-й тур / Ирландия — Хорватия / ТРК Футб ...
  • Чемпионат Европы 2012 / Группа D / 1-й тур / Украина - Швеция / Спорт 1 [11 ...
  • Олимпиада 2012 / Мужчины / Группа D / 1-й тур / Испания — Япония / НТВ+ [Фу ...
  • Tank Feat. T.I. & Kris Stephens / Compliments [2012, RnB,Hip-Hop, HDRip]
  • Папаша / Starbuck (Кен Скотт, Драма, комедия, 2011) [BDRip, Профессиональны ...
  • Неделя в NBA с В.Гомельским / НТВ+ [28.06.2011, SD, XviD, RU, SAT]
  • Чемпионат Европы 2012 / Группа B / 1-й тур / Германия - Португалия / Спорт ...
  • Замёрзший мир / 2012: Ice Age (Трэвис Форт, фантастика, боевик, 2011) [HDRi ...
  • Супершторм в Сиэтле / Seattle Superstorm (Джейсон Бурк, фантастика, боевик ...
  • Мгновение любви / Here (Браден Кинг, Драма, мелодрама, приключения, 2011) [ ...
  • Олимпиада 2012 / Женщины, Мужчины / Плавание / Квалификация / НТВ+ [30.07.2 ...
  • Глушь / Resurrection County (Matt Zettell, ужасы, триллер, 2008) [DVDRip, П ...
  • Искажение / Skew (Сейв Челенз, ужасы, триллер, 2011) [HDRip, Профессиональн ...
  • Ничего, кроме правды / Nothing But the Truth (Род Лури, триллер, драма, 200 ...
  • Робинзон Крузо / Robinson Crusoe (Род Харди, Джордж Миллер, драма, приключе ...
  • Информация
    Посетители, находящиеся в группе Гости, не могут оставлять комментарии к данной публикации.