вход на сайт

Имя пользователя :
Пароль :

Восстановление пароля Регистрация
Мэверик / Maverick (Ричард Доннер, боевик, триллер, комедия, приключения, вестерн, 1994) [BDRip-AVC, 2хДублированный + 2хПрофессиональный (многоголосый закадровый) + Оригинал]
Рейтинг:
(голосов: 1)



[img]{THEME}/images/logopost.png[/img]



Мэверик / Maverick
«In their hands, a deck of cards was the only thing more dangerous than a gun.»

Год выпуска: 1994
Страна: США,
Производство: Donner/Shuler-Donner Productions
Жанр: Боевик, триллер, комедия, приключения, вестерн

Режиссёр: Ричард Доннер / Richard Donner
В ролях: Мэл Гибсон, Джоди Фостер, Джеймс Гарнер, Грэм Грин, Альфред Молина, Джеймс Коберн, Даб Тейлор, Джеффри Льюис, Пол Л. Смит, Дэн Хедайя

Перевод: 2хПрофессиональный (дублированный) 2хПрофессиональный (многоголосый закадровый) + Оригинал
Субтитры: Русские

Описание: История о великолепном картежнике, игроке в покер и, конечно, обаятельном мошеннике Брэте Маверике. О том, как он самоотверженно «зарабатывает» деньги для участия в чемпионате по игре в покер. Но не только он собирается принять участие в «великом мошенничестве» — туда же стремится и обаятельная воровка Аннабел. Много приключений выпадет на их долю, пока им удастся набрать по 25 тысяч долларов, а именно такая сумма необходима для участия в игре….



Дата премьеры (мир): 20 мая 1994
Качество: BDRip-AVC
Продолжительность: 02:06:36

Формат: MKV
Видео кодек: AVC
Аудио кодек: AC3
Видео: 1104x460 (2.40:1), 23.976 fps, ~2983 Kbps, 0.245 bit/pixel
Аудио#1: 48 kHz, Audio Coding 3, 2 ch, ~192 kbps avg - Профессиональный (дублированный) Мост-Видео - язык русский
Аудио#2: 48 kHz, Audio Coding 3, 2 ch, ~192 kbps avg - Профессиональный (дублированный) Варус-Видео - язык русский
Аудио#3: 48 kHz, Audio Coding 3, 2 ch, ~192 kbps avg - Профессиональный (многоголосый закадровый) НТВ - язык русский
Аудио#4: 48 kHz, Audio Coding 3, 2 ch, ~192 kbps avg - Профессиональный (многоголосый закадровый) Россия - язык русский
Аудио#5: 48 kHz, Audio Coding 3, 2 ch, ~192 kbps avg - Оригинал - язык английский
MediaInfo ▼Text
Complete name : E:Maverick.1994.BDrip-AVC.mkv
Format : Matroska
File size : 3.49 GiB
Duration : 2h 6mn
Overall bit rate : 3 944 Kbps
Encoded date : UTC 2011-07-09 15:50:10
Writing application : mkvmerge v4.5.0 (Speed of Light) built on Feb 15 2011 12:50:20
Writing library : libebml v1.2.0 + libmatroska v1.1.0
Video
ID : 1
Format : AVC
Format/Info : Advanced Video Codec
Format profile : [email protected]
Format settings, CABAC : Yes
Format settings, ReFrames : 12 frames
Codec ID : V_MPEG4/ISO/AVC
Duration : 2h 6mn
Bit rate : 2 983 Kbps
Width : 1 104 pixels
Height : 460 pixels
Display aspect ratio : 2.40:1
Frame rate : 23.976 fps
Color space : YUV
Chroma subsampling : 4:2:0
Bit depth : 8 bits
Scan type : Progressive
Bits/(Pixel*Frame) : 0.245
Stream size : 2.57 GiB (74%)
Writing library : x264 core 114 r1913 5fd3dce
Encoding settings : cabac=1 / ref=12 / deblock=1:-3:-3 / analyse=0x3:0x113 / me=umh / subme=10 / psy=1 / psy_rd=0.95:0.15 / mixed_ref=1 / me_range=32 / chroma_me=1 / trellis=2 / 8x8dct=1 / cqm=0 / deadzone=21,11 / fast_pskip=0 / chroma_qp_offset=-3 / threads=3 / sliced_threads=0 / nr=0 / decimate=1 / interlaced=0 / constrained_intra=0 / bframes=10 / b_pyramid=2 / b_adapt=2 / b_bias=0 / direct=3 / weightb=1 / open_gop=0 / weightp=2 / keyint=250 / keyint_min=23 / scenecut=40 / intra_refresh=0 / rc_lookahead=100 / rc=2pass / mbtree=1 / bitrate=2983 / ratetol=1.0 / qcomp=0.70 / qpmin=0 / qpmax=69 / qpstep=4 / cplxblur=20.0 / qblur=0.5 / vbv_maxrate=50000 / vbv_bufsize=62500 / nal_hrd=none / ip_ratio=1.40 / aq=2:1.00
Language : English
Audio #1
ID : 2
Format : AC-3
Format/Info : Audio Coding 3
Mode extension : CM (complete main)
Codec ID : A_AC3
Duration : 2h 6mn
Bit rate mode : Constant
Bit rate : 192 Kbps
Channel(s) : 2 channels
Channel positions : Front: L R
Sampling rate : 48.0 KHz
Bit depth : 16 bits
Compression mode : Lossy
Stream size : 174 MiB (5%)
Title : Дубляж, Мост-Видео
Language : Russian
Audio #2
ID : 3
Format : AC-3
Format/Info : Audio Coding 3
Mode extension : CM (complete main)
Codec ID : A_AC3
Duration : 2h 6mn
Bit rate mode : Constant
Bit rate : 192 Kbps
Channel(s) : 2 channels
Channel positions : Front: L R
Sampling r
88d297bc8c9d98ceec36b7eefacb3a95a2400c72Мэверик / Maverick (Ричард Доннер, боевик, триллер, комедия, приключения, вестерн, 1994) [BDRip-AVC, 2хДублированный + 2хПрофессиональный (многоголосый закадровый) + Оригинал] Мэверик / Maverick (Ричард Доннер, боевик, триллер, комедия, приключения, вестерн, 1994) [BDRip-AVC, 2хДублированный + 2хПрофессиональный (многоголосый закадровый) + Оригинал] " />

Аплоадер: Админ, дата: 26-12-2011, 11:04, торрент скачан: 359 раз

Понравилась раздача? Посмотрите эти:
  • Два ствола / 2 Guns (Бальтасар Кормакур, боевик, триллер, драма, комедия, к ...
  • Верное дельце / Une pure affaire (Александр Коффре, Боевик, Комедия, Кримин ...
  • Отдел 13 / Diamant 13 (Гайллз Бэхат, Боевик, триллер, криминал, 2009) [BDRi ...
  • Джекпот / Arme Riddere (Магнус Мартенс, Боевик, комедия, криминал, 2011) [B ...
  • Убить по расписанию / Ticking Clock (Эрни Барбараш, фантастика, боевик, три ...
  • Мэверик / Maverick (Ричард Доннер, комедия, приключения, вестерн, 1994) [HD ...
  • Персонаж / Stranger Than Fiction (Марк Форстер, Комедия, драма, фантастика, ...
  • Леон [2-в-1] / Léon [2-in-1] (Люк Бессон, триллер, драма, криминал, 1994) [ ...
  • Охота за "Красным Октябрём" / The Hunt for "Red October" (Джон МакТирнан, б ...
  • Ромео должен умереть / Romeo Must Die (Анджей Бартковяк, Боевик, триллер, к ...
  • Мэверик / Maverick (Ричард Доннер, комедия, приключения, вестерн, 1994) [BD ...
  • Один Дома / Home Alone (Крис Коламбус, комедия, приключения, семейный, 1990 ...
  • Леон: Профессионал (Режиссерская версия) / Leon (Люк Бессон, боевик, 1994) ...
  • Далеко-далеко / Far and Away (Рон Ховард, драма, мелодрама, приключения, ве ...
  • Mylene Farmer / Du Temps [2011, Pop, HDTVRip]
  • Mylene Farmer / Bleu Noir [2011, Pop, HDTVRip]
  • Мэверик / Maverick (Ричард Доннер,комедия, приключения, вестерн, 1994) [HDT ...
  • Мэверик / Maverick (Ричард Доннер, комедия, приключения, вестерн, 1994) [HD ...
  • Мэверик / Maverick (Ричард Доннер /Richard Donner/, вестерн, комедия, 1994) ...
  • Мэверик / Maverick (Ричард Доннер, боевик, триллер, комедия, приключения, в ...
  • Информация
    Посетители, находящиеся в группе Гости, не могут оставлять комментарии к данной публикации.