вход на сайт

Имя пользователя :
Пароль :

Восстановление пароля Регистрация
Апач / Apache (Роберт Олдрич, вестерн, 1954) [DVDRip, Профессиональный (многоголосый, закадровый)]
Рейтинг:
(голосов: 1)



[img]{THEME}/images/logopost.png[/img]



Апач / Apache

Год выпуска: 1954
Страна: США
Производство: Hecht-Lancaster Productions, Linden Productions
Жанр: вестерн

Режиссёр: Роберт Олдрич
В ролях: Берт Ланкастер, Джин Питерс, Джон МакИнтайр, Чарльз Бронсон, Джон Денер, Пол Гилфойл, Йен МакДональд, Уолтер Сэнд, Моррис Анкрум, Монте Блу

Перевод: Профессиональный (многоголосый, закадровый)
Субтитры: Отсутствуют

Описание:
По пути во Флориду из товарного вагона, куда солдаты Соединенных Штатов загрузили пленных индейцев, сумев освободиться от оков, бежит молодой апач по имени Массаи. Красивый мускулистый воин, после долгих испытаний, наконец, достигнув родных степей, вновь берется за оружие, чтобы отомстить своим бледнолицым врагам.


Дополнительно:
MediaInfo ▼Text
Общее
Полное имя :K:РАЗДАЧААпачapache.avi
Формат :AVI
Размер :1.37 GiB
Продолжительность :01:23:51.360
Общий поток :2 334 Kbps
Программа кодирования :FairUse Wizard - http://fairusewizard.com
Библиотека кодирования :The best and REALLY easy backup tool

Видео
Идентификатор :0
Формат :MPEG-4 Visual
Параметр BVOP формата :1
Параметр Qpel формата :No
Параметр GMC формата :0
Параметр Matrix формата :Default (H.263)
Идентификатор кодека :DX50
Продолжительность :1h 23mn 51s 360ms
Битрейт :2 068 Kbps
Ширина :688 pixels
Высота :512 pixels
Соотношение сторон :1.344
Частота кадров :25.000 fps
Глубина цвета :8 bits
Подвыборка цветности :4:2:0
Цветовое пространство :YUV
Тип развертки :Progressive
Бит/(Пиксели*Кадры) :0.235
Размер потока :1.21 GiB (89%)
Библиотека кодирования :DivX503b2432p

Аудио #1
Идентификатор :1
Формат :AC-3
Формат/Информация :Audio Coding 3
Идентификатор кодека :2000
Продолжительность :01:23:51.360
Вид битрейта :Constant
Битрейт :256 Kbps
Канал(ы) :5 channels
Расположение каналов :Front: L C R, Side: L R
Частота :48.0 KHz
Битовая глубина :16 bits
Метод сжатия :Lossy
Размер потока :154 MiB (11%)


4b6d93141488c749c6e3847e364e7c1c3783d5f7Апач / Apache (Роберт Олдрич, вестерн, 1954) [DVDRip, Профессиональный (многоголосый, закадровый)] Апач / Apache (Роберт Олдрич, вестерн, 1954) [DVDRip, Профессиональный (многоголосый, закадровый)] " />

Аплоадер: Админ, дата: 4-06-2011, 21:34, торрент скачан: 359 раз

Понравилась раздача? Посмотрите эти:
  • Заверните мне норку / Make Mine Mink (Роберт Эшер, комедия, 1960) [DVDRip, ...
  • Трудный путь в Александрию / Ice Cold in Alex (Дж. Ли Томпсон, драма, военн ...
  • Что случилось с Бэби Джейн? / What Ever Happened to Baby Jane? (Роберт Олдр ...
  • МакКейб и миссис Миллер / McCabe & Mrs. Miller (Роберт Олтмен, драма, весте ...
  • В 3:10 на Юму / 3:10 to Yuma (Дэлмер Дэйвс, триллер, драма, вестерн, 1957) ...
  • Магазинчик за углом / The Shop Around the Corner (Эрнст Любич, драма, мелод ...
  • След кота (Уильям А. Уэллмен, драма, вестерн, 1954) [DVDRip, Любительский ( ...
  • Тысяча и одна ночь / Чудеса Аладдина / The Wonders of Aladdin / Le meravigl ...
  • Вальсирующие / Les valseuses (Бертран Блие, драма, комедия, криминал, 1966) ...
  • Афера / The Sting (Джордж Рой Хилл, комедия, криминал, 1973) [DVDRip, Профе ...
  • Укрощение строптивой / The Taming of the Shrew (Франко Дзеффирелли, комедия ...
  • Лиловая равнина / The Purple Plain (Роберт Пэрриш, боевик, драма, приключен ...
  • Гигант / Giant (Джордж Стивенс, драма, мелодрама, вестерн, 1956) [DVDRip, П ...
  • День добрый, улыбка! / Bonjour sourire! (Клод Соте, комедия, 1956) [DVDRip, ...
  • Император севера / Emperor of the North Pole (Роберт Олдрич, боевик, трилле ...
  • К северу от Аляски / North to Alaska (Генри Хэтэуэй, вестерн, комедия, 1960 ...
  • Дикая банда / The Wild Bunch (Сэм Пекинпа, вестерн, 1969) [HDRip, Профессио ...
  • Робинзон Крузо / Robinson Crusoe (Луис Бунюэль, драма, приключения, 1954) [ ...
  • Римлянка / La romana (Луиджи Дзампа, драма, 1954) [DVDRip, Любительский (од ...
  • Рио Браво / Rio Bravo (Ховард Хоукс, драма, мелодрама, вестерн, 1959) [BDRi ...
  • Расплата кровью / The Man Who Came Back (Глен Питре, боевик, драма, вестерн ...
  • Повышение / The Promotion (Стив Конрад, Комедия, 2008) [DVDRip, Профессиона ...
  • Эльдорадо / El Dorado (Ховард Хоукс, боевик, приключения, вестерн, 1966) [D ...
  • Хад / Hud (Мартин Ритт, драма, 1963) [DVDRip, Профессиональный (многоголосы ...
  • Школа воров 2 / Scuola di ladri - parte seconda (Нери Паренти, Комедия, 198 ...
  • Информация
    Посетители, находящиеся в группе Гости, не могут оставлять комментарии к данной публикации.