вход на сайт

Имя пользователя :
Пароль :

Восстановление пароля Регистрация
Варвары и воры / Heathens and Thieves (Меган Петерсон, Джон Синклер, триллер, детектив, вестерн, 2012) [HDRip, Профессиональный (многоголосный, закадровый)]
Рейтинг:
(голосов: 1)



[img]{THEME}/images/logopost.png[/img]



Варвары и воры / Heathens and Thieves
------



Год выпуска: 2012
Страна: США
Производство: Orofino
Жанр: триллер, детектив, вестерн

Режиссер: Меган Петерсон, Джон Синклер
В ролях: Эндрю Симпсон, Гвендолин Йео, Дон Суэйзи, Ричард Дойл, Майкл Роберт Брэндон, Том Проктер, Джоэль Патрик Берри, Джесси Флорес, Джон А. Лоренц

Перевод: Профессиональный (многоголосный, закадровый) [НТВ+]
Субтитры: Отсутствуют

Описание: Двое беглецов, осуждённых за убийство, скрываясь в лесу от преследователей, встречают федерального маршала, который предлагает им разжиться золотом, ограбив ранчо китайца. Желая избегнуть убийств и трат на сообщников, один из беглецов устраивается на ранчо помощником, надеясь мирным путём забрать найденное золото. Но о возможности наживы знают и представитель власти - шериф, и отставной полковник с тремя мексиканцами-головорезами, действующий по поручению ограбленного банка…



МедиаИнфо ▼Text

D:Varvary.i.vory.2012.P.HDRip.745.avi
General
Complete name : D:Varvary.i.vory.2012.P.HDRip.745.avi
Format : AVI
Format/Info : Audio Video Interleave
File size : 746 MiB
Duration : 1h 49mn
Overall bit rate : 949 Kbps
Writing application : VirtualDubMod 1.5.10.2 (build 2540/release)
Writing library : VirtualDubMod build 2540/release
Video #0
ID : 0
Format : MPEG-4 Visual
Format profile : Advanced [email protected]
Format settings, BVOP : Yes
Format settings, QPel : No
Format settings, GMC : No warppoints
Format settings, Matrix : Default (MPEG)
Codec ID : XVID
Codec ID/Hint : XviD
Duration : 1h 49mn
Bit rate : 812 Kbps
Width : 640 pixels
Height : 352 pixels
Display aspect ratio : 16:9
Frame rate : 23.976 fps
Color space : YUV
Chroma subsampling : 4:2:0
Bit depth : 8 bits
Scan type : Progressive
Compression mode : Lossy
Bits/(Pixel*Frame) : 0.150
Stream size : 638 MiB (86%)
Writing library : XviD 1.2.1 (UTC 2008-12-04)
Audio #1
ID : 1
Format : MPEG Audio
Format version : Version 1
Format profile : Layer 3
Mode : Joint stereo
Codec ID : 55
Codec ID/Hint : MP3
Duration : 1h 49mn
Bit rate mode : Constant
Bit rate : 128 Kbps
Channel(s) : 2 channels
Sampling rate : 48.0 KHz
Compression mode : Lossy
Stream size : 101 MiB (13%)
Alignment : Aligned on interleaves
Interleave, duration : 42 ms (1.00 video frame)
Interleave, preload duration : 504 ms


Премьеры ▼

Премьера (мир): Отсутствует
сборы в США: Отсутствует


Качество: HDRip
Продолжительность: 01:49:51

Формат: AVI
Видео кодек: XviD
Аудио кодек: MP3
Видео: 640x352 (1.82:1), 23.976 fps, XviD build 50 ~811 kbps avg, 0.15 bit/pixel
Аудио : 48 kHz, MPEG Layer 3, 2 ch, ~128.00 kbps avg
Релиз группы:


|Cтол заказов| Наши раздачи| Набор в группу| Сказать спасибо|


7d14870ef609addfb6d1652c68db6e34391ffd22Варвары и воры / Heathens and Thieves (Меган Петерсон, Джон Синклер, триллер, детектив, вестерн, 2012) [HDRip, Профессиональный (многоголосный, закадровый)] Варвары и воры / Heathens and Thieves (Меган Петерсон, Джон Синклер, триллер, детектив, вестерн, 2012) [HDRip, Профессиональный (многоголосный, закадровый)] " />

Аплоадер: Админ, дата: 28-05-2013, 16:36, торрент скачан: 359 раз

Понравилась раздача? Посмотрите эти:
  • Погнали! / Getaway (Кортни Соломон, Боевик,Криминал, 2013) [HDRip, Професси ...
  • Марафон / De Marathon (Дидрик Копал, комедия, спорт, 2012) [HDRip, Професси ...
  • Марафон / De Marathon (Дидрик Копал, комедия, спорт, 2012) [HDRip, Професси ...
  • Мои герои / Mes heros (Эрик Беснард, комедия, 2012) [HDRip, Профессиональны ...
  • Войны орков / Orc Wars (Кол Гласс, Боевик, 2013) [DVDRip, Профессиональный ...
  • Варвары и воры / Heathens and Thieves (Меган Петерсон, Джон Синклер, трилле ...
  • Кодовое имя «Джеронимо» / Seal Team Six: The Raid on Osama Bin Laden (Джон ...
  • Слепой поворот / Blind Turn (Роберт Орр, Триллер, драма, детектив, 2012) [W ...
  • Варвары и воры / Heathens and Thieves (Меган Петерсон, Джон Синклер, трилле ...
  • Скуби-Ду! Маска Синего Сокола / Scooby-Doo! Mask Of The Blue Falcon (Оливье ...
  • Лучший стрелок / Top Gun (Тони Скотт, боевик, драма, мелодрама, 1986) [BDRi ...
  • Чемпионат Германии 2011-12 / 28-й тур / Боруссия Д - Штутгарт / НТВ+ [Футбо ...
  • Чемпионат Испании 2011-12 / 36-й тур / Реал Мадрид - Севилья / НТВ+ [Футбол ...
  • Чемпионат Европы 2012 / Группа C / 1-й тур / Ирландия — Хорватия / ТРК Футб ...
  • Чемпионат Европы 2012 / Группа D / 1-й тур / Украина - Швеция / Спорт 1 [11 ...
  • Олимпиада 2012 / Мужчины / Группа D / 1-й тур / Испания — Япония / НТВ+ [Фу ...
  • Tank Feat. T.I. & Kris Stephens / Compliments [2012, RnB,Hip-Hop, HDRip]
  • Буря в Арктике / Arctic Blast (Брайан Тренчард-Смит, фантастика, триллер, 2 ...
  • Военные игры / War Games: At the End of the Day(Козимо Алема, Триллер, Ужас ...
  • Чемпионат Европы 2012 / Группа B / 1-й тур / Германия - Португалия / Спорт ...
  • Полусвет / Half Light (Крэйг Розенберг, Ужасы, триллер, драма, детектив, 20 ...
  • Замёрзший мир / 2012: Ice Age (Трэвис Форт, фантастика, боевик, 2011) [HDRi ...
  • Олимпиада 2012 / Женщины, Мужчины / Плавание / Квалификация / НТВ+ [30.07.2 ...
  • Искажение / Skew (Сейв Челенз, ужасы, триллер, 2011) [HDRip, Профессиональн ...
  • Ничего, кроме правды / Nothing But the Truth (Род Лури, триллер, драма, 200 ...
  • Информация
    Посетители, находящиеся в группе Гости, не могут оставлять комментарии к данной публикации.