вход на сайт

Имя пользователя :
Пароль :

Восстановление пароля Регистрация
Варвары и воры / Heathens and Thieves (Меган Петерсон, Джон Синклер, триллер, детектив, вестерн, 2012) [HDRip, Профессиональный (многоголосный, закадровый)]
Рейтинг:
(голосов: 1)



[img]{THEME}/images/logopost.png[/img]



Варвары и воры / Heathens and Thieves
------



Год выпуска: 2012
Страна: США
Производство: Orofino
Жанр: триллер, детектив, вестерн

Режиссер: Меган Петерсон, Джон Синклер
В ролях: Эндрю Симпсон, Гвендолин Йео, Дон Суэйзи, Ричард Дойл, Майкл Роберт Брэндон, Том Проктер, Джоэль Патрик Берри, Джесси Флорес, Джон А. Лоренц

Перевод: Профессиональный (многоголосный, закадровый) [НТВ+]
Субтитры: Отсутствуют

Описание: Двое беглецов, осуждённых за убийство, скрываясь в лесу от преследователей, встречают федерального маршала, который предлагает им разжиться золотом, ограбив ранчо китайца. Желая избегнуть убийств и трат на сообщников, один из беглецов устраивается на ранчо помощником, надеясь мирным путём забрать найденное золото. Но о возможности наживы знают и представитель власти - шериф, и отставной полковник с тремя мексиканцами-головорезами, действующий по поручению ограбленного банка…



МедиаИнфо ▼Text

D:Varvary.i.vory.2012.P.HDRip.1400Mb.avi
General
Complete name : D:Varvary.i.vory.2012.P.HDRip.1400Mb.avi
Format : AVI
Format/Info : Audio Video Interleave
File size : 1.37 GiB
Duration : 1h 49mn
Overall bit rate : 1 782 Kbps
Writing application : VirtualDubMod 1.5.10.2 (build 2540/release)
Writing library : VirtualDubMod build 2540/release
Video #0
ID : 0
Format : MPEG-4 Visual
Format profile : Advanced [email protected]
Format settings, BVOP : Yes
Format settings, QPel : No
Format settings, GMC : No warppoints
Format settings, Matrix : Default (MPEG)
Codec ID : XVID
Codec ID/Hint : XviD
Duration : 1h 49mn
Bit rate : 1 581 Kbps
Width : 720 pixels
Height : 400 pixels
Display aspect ratio : 16:9
Frame rate : 23.976 fps
Color space : YUV
Chroma subsampling : 4:2:0
Bit depth : 8 bits
Scan type : Progressive
Compression mode : Lossy
Bits/(Pixel*Frame) : 0.229
Stream size : 1.21 GiB (89%)
Writing library : XviD 1.2.1 (UTC 2008-12-04)
Audio #1
ID : 1
Format : AC-3
Format/Info : Audio Coding 3
Mode extension : CM (complete main)
Codec ID : 2000
Duration : 1h 49mn
Bit rate mode : Constant
Bit rate : 192 Kbps
Channel(s) : 2 channels
Channel positions : Front: L R
Sampling rate : 48.0 KHz
Bit depth : 16 bits
Compression mode : Lossy
Stream size : 151 MiB (11%)
Alignment : Split accross interleaves
Interleave, duration : 42 ms (1.00 video frame)
Interleave, preload duration : 500 ms


Премьеры ▼

Премьера (мир): Отсутствует
сборы в США: Отсутствует


Качество: HDRip
Продолжительность: 01:49:51

Формат: AVI
Видео кодек: XviD
Аудио кодек: AC3
Видео: 720x400 (1.80:1), 23.976 fps, XviD build 50 ~1580 kbps avg, 0.23 bit/pixel
Аудио : 48 kHz, AC3 Dolby Digital, 2 ch, ~192.00 kbps avg
Релиз группы:


|Cтол заказов| Наши раздачи| Набор в группу| Сказать спасибо|


0d62cb291a86020a5f16eb42563150f2ab233d03Варвары и воры / Heathens and Thieves (Меган Петерсон, Джон Синклер, триллер, детектив, вестерн, 2012) [HDRip, Профессиональный (многоголосный, закадровый)] Варвары и воры / Heathens and Thieves (Меган Петерсон, Джон Синклер, триллер, детектив, вестерн, 2012) [HDRip, Профессиональный (многоголосный, закадровый)] " />

Аплоадер: Админ, дата: 28-05-2013, 15:50, торрент скачан: 359 раз

Понравилась раздача? Посмотрите эти:
  • Готовые на всё / Workers - Pronti a tutto (Лоренцо Виньоло, Комедия, 2012) ...
  • Погнали! / Getaway (Кортни Соломон, Боевик, Криминал, 2013) [HDRip, Професс ...
  • Марафон / De Marathon (Дидрик Копал, комедия, спорт, 2012) [HDRip, Професси ...
  • Марафон / De Marathon (Дидрик Копал, комедия, спорт, 2012) [HDRip, Професси ...
  • Верное дельце / Une pure affaire (Александр Коффре, Боевик, Комедия, Кримин ...
  • Мои герои / Mes heros (Эрик Беснард, комедия, 2012) [HDRip, Профессиональны ...
  • Варвары и воры / Heathens and Thieves (Меган Петерсон, Джон Синклер, трилле ...
  • Кодовое имя «Джеронимо» / Seal Team Six: The Raid on Osama Bin Laden (Джон ...
  • Мужество / Wymyk (Грег Зглински, драма, 2011) [DVDRip, Любительский (одного ...
  • Ночь тамплиера / Night of the Templar (Пол Сэмпсон, Ужасы, фантастика, боев ...
  • Подмена / Switch (Фредерик Шёндёрфер, триллер, криминал, 2011) [HDRip, Проф ...
  • Звук моего голоса / Sound of My Voice (Зал Батманглидж, триллер, драма, 201 ...
  • Слепой поворот / Blind Turn (Роберт Орр, Триллер, драма, детектив, 2012) [W ...
  • 23:59 / 23:59 (Гилберт Чан, Ужасы, 2011) [HDRip, Любительский (одноголосый ...
  • Варвары и воры / Heathens and Thieves (Меган Петерсон, Джон Синклер, трилле ...
  • В хлам / Smashed (Джеймс Понсольдт, Драма, комедия, 2012) [HDRip, Профессио ...
  • Захват / Carjacked (Джон Бонито, триллер, 2011)[BDRip, Профессиональный (мн ...
  • Tank Feat. T.I. & Kris Stephens / Compliments [2012, RnB,Hip-Hop, HDRip]
  • Супершторм в Сиэтле / Seattle Superstorm (Джейсон Бурк, фантастика, боевик ...
  • За гранью / Beyond (Йозеф Руснак, триллер, 2012) [HDRip, Профессиональный ...
  • Информация
    Посетители, находящиеся в группе Гости, не могут оставлять комментарии к данной публикации.