вход на сайт

Имя пользователя :
Пароль :

Восстановление пароля Регистрация
Варвары и воры / Heathens and Thieves (Меган Петерсон, Джон Синклер, триллер, детектив, вестерн, 2012) [HDRip-AVC, Профессиональный (многоголосый, закадровый)]
Рейтинг:
(голосов: 1)



[img]{THEME}/images/logopost.png[/img]



Варвары и воры / Heathens and Thieves

Год выпуска: 2012
Страна: США
Производство: Orofino
Жанр: триллер, детектив, вестерн

Режиссёр: Меган Петерсон, Джон Синклер
В ролях: Эндрю Симпсон, Гвендолин Йео, Дон Суэйзи, Ричард Дойл, Майкл Роберт Брэндон, Том Проктер, Джоэль Патрик Берри, Джесси Флорес, Джон А. Лоренц

Перевод: Профессиональный (многоголосый) [НТВ+]
Субтитры: нет

Описание: Двое беглецов, осуждённых за убийство, скрываясь в лесу от преследователей, встречают федерального маршала, который предлагает им разжиться золотом, ограбив ранчо китайца. Желая избегнуть убийств и трат на сообщников, один из беглецов устраивается на ранчо помощником, надеясь мирным путём забрать найденное золото. Но о возможности наживы знают и представитель власти - шериф, и отставной полковник с тремя мексиканцами-головорезами, действующий по поручению ограбленного банка…



Качество: НDRip-AVC
Продолжительность: 01:49:51

Формат: MKV
Видео кодек: H264
Аудио кодек: AС3
Видео: 1024x576 (16:9), 23.976 fps, ~1750kbps avg, 0.15 bit/pixel
Аудио: 48 kHz, AC3, 2 ch, ~192.00 kbps avg

MediaInfo ▼
General
Unique ID : 234631821432700286185232405682107490853 (0xB08471F0C8EDA15497F461B037D0A225)
Complete name : /Torrents/home/rocket/data/Varvary.i.vory.2012.mkv
Format : Matroska
Format version : Version 2
File size : 1.49 GiB
Duration : 1h 49mn
Overall bit rate : 1 944 Kbps
Encoded date : UTC 2013-06-04 04:46:52
Writing application : mkvmerge v5.8.0 (No Sleep / Pillow) built on Sep 2 2012 15:37:04
Writing library : libebml v1.2.3 + libmatroska v1.3.0

Video
ID : 1
Format : AVC
Format/Info : Advanced Video Codec
Format profile : [email protected]
Format settings, CABAC : Yes
Format settings, ReFrames : 4 frames
Codec ID : V_MPEG4/ISO/AVC
Duration : 1h 49mn
Bit rate : 1 750 Kbps
Width : 1 024 pixels
Height : 576 pixels
Display aspect ratio : 16:9
Frame rate : 23.976 fps
Color space : YUV
Chroma subsampling : 4:2:0
Bit depth : 8 bits
Scan type : Progressive
Bits/(Pixel*Frame) : 0.124
Stream size : 1.31 GiB (88%)
Writing library : x264 core 125 r2208 d9d2288
Encoding settings : cabac=1 / ref=3 / deblock=1:-1:-1 / analyse=0x3:0x111 / me=umh / subme=9 / psy=1 / psy_rd=1.00:0.15 / mixed_ref=1 / me_range=32 / chroma_me=1 / trellis=2 / 8x8dct=1 / cqm=0 / deadzone=21,11 / fast_pskip=0 / chroma_qp_offset=-3 / threads=3 / lookahead_threads=1 / sliced_threads=0 / nr=0 / decimate=1 / interlaced=0 / bluray_compat=0 / constrained_intra=0 / bframes=3 / b_pyramid=2 / b_adapt=0 / b_bias=0 / direct=1 / weightb=1 / open_gop=0 / weightp=2 / keyint=250 / keyint_min=23 / scenecut=40 / intra_refresh=0 / rc_lookahead=50 / rc=2pass / mbtree=1 / bitrate=1750 / ratetol=1.0 / qcomp=0.60 / qpmin=0 / qpmax=69 / qpstep=4 / cplxblur=20.0 / qblur=0.5 / ip_ratio=1.40 / aq=1:1.00
Default : Yes
Forced : No

Audio
ID : 2
Format : AC-3
Format/Info : Audio Coding 3
Mode extension : CM (complete main)
Format settings, Endianness : Big
Codec ID : A_AC3
Duration : 1h 49mn
Bit rate mode : Constant
Bit rate : 192 Kbps
Channel(s) : 2 channels
Channel positions : Front: L R
Sampling rate : 48.0 KHz
Bit depth : 16 bits
Compression mode : Lossy
Stream size : 151 MiB (10%)
Default : Yes
Forced : No


7dc8ec9d7ea1e2c9666c130e17c941dd20ba92f3Варвары и воры / Heathens and Thieves (Меган Петерсон, Джон Синклер, триллер, детектив, вестерн, 2012) [HDRip-AVC, Профессиональный (многоголосый, закадровый)] Варвары и воры / Heathens and Thieves (Меган Петерсон, Джон Синклер, триллер, детектив, вестерн, 2012) [HDRip-AVC, Профессиональный (многоголосый, закадровый)] " />

Аплоадер: Админ, дата: 4-06-2013, 18:53, торрент скачан: 359 раз

Понравилась раздача? Посмотрите эти:
  • 30 дней ночи / 30 Days of Night (Дэвид Слэйд, ужасы, триллер, 2007) [HDRip- ...
  • FLO / NRG [2012, Pop, Dance, MasterRip]
  • Eminem / Rap God [2013, Rap, HDRip]
  • Brit Smith feat. Will.i.am / Provocative (Explicit) [2013, Hip-Hop, HDRip]
  • Иллюзия обмана / Now You See Me [Theatrical Cut] (Луи Летерье / Louis Leter ...
  • Странный Томас / Odd Thomas (Стивен Соммерс, триллер, детектив, 2013) [DVDR ...
  • Как громом пораженный / Thunderstruck (Джон Уайтселл, комедия, семейный, 20 ...
  • Варвары и воры / Heathens and Thieves (Меган Петерсон, Джон Синклер, трилле ...
  • Варвары и воры / Heathens and Thieves (Меган Петерсон, Джон Синклер, трилле ...
  • UFC The Ultimate 100 Knockouts - PPV [MMA,2013, HDTVRip 720p]
  • UFC - Best Of 2012 Year In Review[MMA,2013, BDRip 540p]
  • Конец света / Fin (Хорхе Торрегросса, триллер, 2012) [BDRip-AVC, Профессион ...
  • Убить по расписанию / Ticking Clock (Эрни Барбараш, фантастика, боевик, три ...
  • Невидимая сторона / The Blind Side (Джон Ли Хэнкок / John Lee Hancock, драм ...
  • Курьер / The Courier (Хани Абу-Ассад, боевик, триллер, криминал, 2011) [HDR ...
  • Пятница 13-е / Friday the 13th (Шон С. Каннингэм, ужасы, триллер, детектив, ...
  • Пятница 13-е Часть 2 / Friday the 13th Part 2 (Стив Майнер, ужасы, триллер, ...
  • Абсолютное зло / Meeting Evil (Крис Фишер, триллер, драма, криминал, детект ...
  • Ворон / The Raven (Джеймс МакТиг, Триллер, детектив, 2012) [BDRip 720p, Дуб ...
  • Чемпионат Европы 2012 / 1/4 финала / Чехия - Португалия / Спорт 1 HD [Футбо ...
  • Chelsea - Season Review 2011-12 / Челси - Обзор Сезона 2011-12 [ Футбол, 20 ...
  • Формула 1. Сезон 2012. Этап 13 из 20. Гран-При Италии, Квалификация. [2012 ...
  • Mylene Farmer / Du Temps [2011, Pop, HDTVRip]
  • Mylene Farmer / Bleu Noir [2011, Pop, HDTVRip]
  • Хостел 3 / Hostel: Part III (Скотт Спигел / Scott Spiegel, ужасы, триллер, ...
  • Информация
    Посетители, находящиеся в группе Гости, не могут оставлять комментарии к данной публикации.