вход на сайт

Имя пользователя :
Пароль :

Восстановление пароля Регистрация
Одинокий рейнджер / The Lone Ranger (Гор Вербински, вестерн, приключения, боевик, комедия, 2013) [HDRip-AVC, Дублированный + субтитры (рус,англ)]
Рейтинг:
(голосов: 1)



[img]{THEME}/images/logopost.png[/img]



Одинокий рейнджер / The Lone Ranger

Год выпуска: 2013
Страна: США
Производство: Blind Wink Productions, Classic Media, Infinitum Nihil Production, Jerry Bruckheimer Films, Silver Bullet Productions (II), Walt Disney Studios Motion Pictures
Жанр: вестерн, приключения, боевик, комедия

Режиссёр: Гор Вербински
В ролях: Джонни Депп, Арми Хаммер, Том Уилкинсон, Уильям Фихтнер, Барри Пеппер, Джеймс Бэдж Дэйл, Хелена Бонем Картер, Рут Уилсон, Джеймс Фрейн, Чед Брамметт

Перевод: Дублированный
Субтитры: русские, английские (отключаемые)

Описание: История блюстителя закона Джона Рида, который с помощью индейца Тонто стал легендарным мстителем в маске, стоящим на защите справедливости. Тонто с юмором и небылицами повествует о тех приключениях, которые пришлось пережить двум непохожим друг на друга героям, сведенным судьбой для того, чтобы вместе сражаться против общего врага. Им приходится противостоять жадности и коррупции во времена, когда появление первых железных дорог изменило представление о власти и могуществе в мире.



Качество: HDRip-AVC Сэмпл
Продолжительность: 02:29:33 час.

Формат: MKV
Видео кодек: x264
Аудио кодек: AC3
Видео: 960x400 (2,40:1), 23.976 fps, x264 ~1198 kbps avg, 0.130 bit/pixel
Аудио: 48 kHz, AC3 Dolby Digital, 2/0 (L,R) ch, ~192 kbps

Сравнение ▼Сравнение скриншотов c этой раздачейОтчёт MediaInfo ▼Формат : Matroska
Версия формата : Version 4 / Version 2
Размер файла : 1,45 Гбайт
Продолжительность : 2 ч. 29 м.
Общий поток : 1392 Кбит/сек
Название фильма : Одинокий рейнджер / The Lone Ranger (2013) BDRip-AVC rip by Rulya74
Дата кодирования : UTC 2013-10-04 05:02:57
Программа кодирования : mkvmerge v6.2.0 (Promised Land) built on Apr 28 2013 12:22:01
Библиотека кодирования : libebml v1.3.0 + libmatroska v1.4.0

Видео
Идентификатор : 1
Формат : AVC
Формат/Информация : Advanced Video Codec
Профиль формата : [email protected]
Параметр CABAC формата : Да
Параметр ReFrames формата : 9 кадров
Идентификатор кодека : V_MPEG4/ISO/AVC
Продолжительность : 2 ч. 29 м.
Битрейт : 1198 Кбит/сек
Ширина : 960 пикселей
Высота : 400 пикселей
Соотношение сторон : 2,40:1
Режим частоты кадров : Постоянный
Частота кадров : 23,976 кадра/сек
Цветовое пространство : YUV
Субдискретизация насыщенности : 4:2:0
Битовая глубина : 8 бит
Тип развёртки : Прогрессивная
Бит/(Пиксели*Кадры) : 0.130
Размер потока : 1,22 Гбайт (84%)
Библиотека кодирования : x264 core 133 r2334 a3ac64b
Настройки программы : cabac=1 / ref=9 / deblock=1:-1:-1 / analyse=0x3:0x113 / me=umh / subme=9 / psy=1 / psy_rd=1.03:0.10 / mixed_ref=1 / me_range=32 / chroma_me=1 / trellis=2 / 8x8dct=1 / cqm=0 / deadzone=21,11 / fast_pskip=0 / chroma_qp_offset=-3 / threads=4 / lookahead_threads=1 / sliced_threads=0 / nr=0 / decimate=1 / interlaced=0 / bluray_compat=0 / constrained_intra=0 / bframes=6 / b_pyramid=2 / b_adapt=1 / b_bias=0 / direct=3 / weightb=1 / open_gop=0 / weightp=2 / keyint=240 / keyint_min=23 / scenecut=40 / intra_refresh=0 / rc_lookahead=40 / rc=2pass / mbtree=1 / bitrate=1198 / ratetol=1.0 / qcomp=0.60 / qpmin=10 / qpmax=69 / qpstep=4 / cplxblur=20.0 / qblur=0.5 / vbv_maxrate=62500 / vbv_bufsize=78125 / nal_hrd=none / ip_ratio=1.40 / aq=2:1.00
Default : Да
Forced : Нет

Аудио
Идентификатор : 2
Формат : AC-3
Формат/Информация : Audio Coding 3
Расширение режима : CM (complete main)
Параметр Endianness формата : Big
Идентификатор кодека : A_AC3
Продолжительность : 2 ч. 29 м.
Вид битрейта : Постоянный
Битрейт : 192 Кбит/сек
Каналы : 2 канала
Расположение каналов : Front: L R
Частота : 48,0 КГц
Битовая глубина : 16 бит
Метод сжатия : С потерями
Размер потока : 205 Мбайт (14%)
Заголовок : Дублированный
Язык : Russian
Default : Да
Forced : Нет

Текст #1
Идентификатор : 3
Формат : UTF-8
Идентификатор кодека : S_TEXT/UTF8
Идентификатор кодека/Информация : UTF-8 Plain Text
Язык : Russian
Default : Да
Forced : Нет

Текст #2
Идентифи
631f327dbf917132fbfdcbdff9ee572f3a6344f8Одинокий рейнджер / The Lone Ranger (Гор Вербински, вестерн, приключения, боевик, комедия, 2013) [HDRip-AVC, Дублированный + субтитры (рус,англ)] Одинокий рейнджер / The Lone Ranger (Гор Вербински, вестерн, приключения, боевик, комедия, 2013) [HDRip-AVC, Дублированный + субтитры (рус,англ)] " />

Аплоадер: Админ, дата: 4-10-2013, 12:03, торрент скачан: 359 раз

Понравилась раздача? Посмотрите эти:
  • Бунраку / Bunraku (Гай Моше, боевик, триллер, драма, 2010) [BDRip-AVC, Проф ...
  • Одноклассники 2 / Grown Ups 2 (Деннис Дуган, Комедия, 2013) [BDRip-AVC, Про ...
  • Мальчишник: Часть III / The Hangover Part III (Тодд Филлипс, комедия, 2013) ...
  • Одинокий рейнджер / The Lone Ranger (Гор Вербински, вестерн, приключения, б ...
  • Одинокий рейнджер / The Lone Ranger (Гор Вербински, Вестерн, приключения, б ...
  • Одинокий рейнджер / The Lone Ranger (Гор Вербински, вестерн, приключения, б ...
  • Одинокий рейнджер / The Lone Ranger (Гор Вербински, вестерн, приключения, б ...
  • Одинокий рейнджер / The Lone Ranger (Гор Вербински, Вестерн, приключения, б ...
  • Одинокий рейнджер / The Lone Ranger (Гор Вербински, вестерн, приключения, б ...
  • Одинокий рейнджер / The Lone Ranger (Гор Вербински, вестерн, приключения, б ...
  • Одинокий рейнджер / The Lone Ranger (Гор Вербински, Вестерн, приключения, б ...
  • Одинокий рейнджер / The Lone Ranger (Гор Вербински, Вестерн, приключения, б ...
  • Одинокий рейнджер / The Lone Ranger (Гор Вербински, Вестерн, приключения, б ...
  • Одинокий рейнджер / The Lone Ranger (Гор Вербински, Вестерн, приключения, б ...
  • Одинокий рейнджер / The Lone Ranger (Гор Вербински, Вестерн, приключения, б ...
  • Одинокий рейнджер / The Lone Ranger (Гор Вербински, Вестерн, приключения, б ...
  • Жалғыз рейнджер / Одинокий рейнджер / The Lone Ranger (Гор Вербински, весте ...
  • Ананасовый экспресс: Сижу, курю / Pineapple Express (Дэвид Гордон Грин, бое ...
  • [iPhone, iPod] Одинокий рейнджер / The Lone Ranger (Гор Вербински, вестерн, ...
  • (2013) Hans Zimmer / The Lone Ranger / Одинокий Рейнджер (Score) [MP3, 320 ...
  • Война миров Z / World War Z [Расширенная версия] (Марк Форстер, ужасы, фант ...
  • Одинокий рейнджер / The Lone Ranger (Гор Вербински, вестерн, приключения, б ...
  • Поймай толстуху, если сможешь / Identity Thief [Theatrical Cut] (Сет Гордон ...
  • Тачка №19 / Vehicle 19 (Мукунда Майкл Дьюил, триллер, боевик, 2013) [HDRip- ...
  • [Тизер] Одинокий рейнджер / The Lone Ranger (Гор Вербински, боевик, приключ ...
  • Информация
    Посетители, находящиеся в группе Гости, не могут оставлять комментарии к данной публикации.