вход на сайт

Имя пользователя :
Пароль :

Восстановление пароля Регистрация
Железная хватка / True Grit (Итэн Коэн, Джоэл Коэн, драма, приключения, вестерн, 2010) [HDRip, Авторский (одноголосый, закадровый)]
Рейтинг:
(голосов: 1)



[img]{THEME}/images/logopost.png[/img]



«Железная хватка / True Grit »

«Punishment comes one way or another»

Год выпуска: 2010
Страна: США
Производство: Mike Zoss Productions, Paramount Pictures
Жанр: драма, приключения, вестерн

Режиссёр: Итэн Коэн, Джоэл Коэн
В ролях: Джефф Бриджес, Мэтт Дэймон, Хейли Стайнфелд, Джош Бролин, Бэрри Пеппер, Дэкин Мэтьюз, Ярлат Конрой, Пол Рэй, Домналл Глисон, Элизабет Марвел

Перевод: Авторский (одноголосый,закадровый)
Озвучка: Дмитрий «Гоблин» Пучков (ДВЕ ВЕРСИИ)
Субтитры:нет

Описание Дмитрия Пучкова
У маленькой девочки злой человек убивает папу. И никто не хочет девочке помочь, все как один советуют отправляться домой, к маме. Но у четырнадцатилетней девочки, как нетрудно догадаться, железная хватка. И никто не уйдет обиженным. Замечательный новый фильм братьев Коганов в любимом многими жанре вестерна. Мастерский дебют Хэлли Стенфилд в компании с Джеффом Бриджесом ("Большой Лебовски", "Трон" ), Мэттом Дэймоном (сериал про Борна, "Отряд Америка" ), Джошем Бролином ("Старикам тут не место", "Американский бандит" ) и Барри Пеппером (снайпер из "Спасти рядового Райана" ). Нехороших слов нет. Фильм обязателен к просмотру.

» IMDB-рейтинг:7.90 (98 081)

» КиноПоиск-рейтинг:7.756 (20 101)

» Скачать сэмпл


Доп. информация
Премьеры ▼премьера (мир)14 декабря 2010
премьера (РФ)10 февраля 2011, «Централ Партнершип»
релиз на Blu-Ray 7 июня 2011, «Юниверсал Пикчерс Рус»
релиз на DVD 7 июня 2011, «Юниверсал Пикчерс Рус»
Рейтинг MPAA ▼
рейтинг PG-13 детям до 13 лет просмотр не желателен
Mediainfo ▼TextОбщее
Полное имя : D:DownloadsЖелезная хватка.2011.HDRip.AVO.avi
Формат : AVI
Формат/Информация : Audio Video Interleave
Размер файла : 1,78 Гбайт
Продолжительность : 1 ч. 50 м.
Общий поток : 2313 Кбит/сек
Программа кодирования : VirtualDubMod 1.5.10.2 (build 2542/release)
Библиотека кодирования : VirtualDubMod build 2542/release

Видео
Идентификатор : 0
Формат : MPEG-4 Visual
Профиль формата : Advanced [email protected]
Параметр BVOP формата : 1
Параметр QPel формата : Нет
Параметр GMC формата : Без точки перехода
Параметр матрицы формата : Выборочная
Идентификатор кодека : XVID
Идентификатор кодека/Подсказка : XviD
Продолжительность : 1 ч. 50 м.
Битрейт : 1851 Кбит/сек
Ширина : 720 пикс.
Высота : 304 пикс.
Соотношение сторон : 2,35:1
Частота кадров : 23,976 кадр/сек
Цветовое пространство : YUV
Подвыборка цветности : 4:2:0
Битовая глубина : 8 бит
Тип развёртки : Прогрессивная
Метод сжатия : С потерями
Бит/(Пиксели*Кадры) : 0.353
Размер потока : 1,43 Гбайт (80%)
Библиотека кодирования : XviD 1.2.1 (UTC 2008-12-04)

Аудио #1
Идентификатор : 1
Формат : AC-3
Формат/Информация : Audio Coding 3
Расширение режима : CM (complete main)
Идентификатор кодека : 2000
Продолжительность : 1 ч. 50 м.
Вид битрейта : Постоянный
Битрейт : 224 Кбит/сек
Канал(ы) : 2 канала(ов)
Расположение каналов : Front: L R
Частота : 48,0 КГц
Битовая глубина : 16 бит
Метод сжатия : С потерями
Размер потока : 177 Мбайт (10%)
Выравнивание : Разделение по промежуткам
Продолжительность промежутка : 42 мс. (1,00 видеокадр)

Аудио #2
Идентификатор : 2
Формат : AC-3
Формат/Информация : Audio Coding 3
Расширение режима : CM (complete main)
Идентификатор кодека : 2000
Продолжительность : 1 ч. 50 м.
Вид битрейта : Постоянный
Битрейт : 224 Кбит/сек
Канал(ы) : 2 канала(ов)
Расположение каналов : Front: L R
Частота : 48,0 КГц
Битовая глубина : 16 бит
Метод сжатия : С потерями
Размер потока : 177 Мбайт (10%)
Выравнивание : Разделение по промежуткам
Продолжительность промежутка : 42 мс. (1,00 видеокадр)


Тех. данные
Качество: ~ НÐRìρ ~
Продолжительность: 01:50:20 часа


Формат: AVI
Видео кодек: XviD
Аудио кодек: AC-3
Видео: 720x304 (2.35:1), 23,97 fps, XviD, ~ 1851 kbps avg, 0.35 bit/pixel
Аудио №1: 48.00 kHz, Audio Coding 3, 2
6cde66dc4ce9b5376135e4dcec3f47aebab0b584Железная хватка / True Grit (Итэн Коэн, Джоэл Коэн, драма, приключения, вестерн, 2010) [HDRip, Авторский (одноголосый, закадровый)] Железная хватка / True Grit (Итэн Коэн, Джоэл Коэн, драма, приключения, вестерн, 2010) [HDRip, Авторский (одноголосый, закадровый)] " />

Аплоадер: Админ, дата: 16-12-2011, 13:38, торрент скачан: 359 раз

Понравилась раздача? Посмотрите эти:
  • Бойфренд из будущего / About Time (Ричард Кёртис, Фантастика, драма, комеди ...
  • Прошлое / Le passé (Асгар Фархади, Драма, детектив , 2013) [HDRip, Авторски ...
  • Железная хватка / True Grit (Итэн Коэн, Джоэл Коэн, драма, приключения, вес ...
  • Железная хватка / True Grit (Итэн Коэн, Джоэл Коэн, приключения, драма, вес ...
  • Железная хватка / True Grit (Итэн Коэн, Джоэл Коэн, драма, приключения, вес ...
  • Железная хватка / True Grit (Итан Коэн, Джоэл Коэн, драма, приключения, вес ...
  • Жил-был тигр / Ek Tha Tiger (Кабир Кхан, боевик, триллер , 2012) [ HDRip, ...
  • Железная хватка / True Grit (Итэн Коэн, Джоэл Коэн, Драма, приключения, вес ...
  • Приключения Икабода и Мистера Тоада / The Adventures Of Ichabod And Mr. Toa ...
  • Железная хватка / True Grit (Итэн Коэн, Джоэл Коэн / Ethan Coen, Joel Coen, ...
  • Путешествие на дно моря / Voyage to the Bottom of the Sea (Ирвин Аллен / I ...
  • Кажется, я люблю свою жену / I Think I Love My Wife (Крис Рок, Драма, мелод ...
  • Боец из трущоб / Gutter King (Кейт Алан Моррис / Keith Alan Morris, боевик, ...
  • Железная хватка / True Grit (Итэн Коэн, Джоэл Коэн, Драма, Приключение, Вес ...
  • Железная хватка / True Grit (Итэн Коэн, Джоэл Коэн, приключения, драма, вес ...
  • Железная хватка / True Grit (Итэн Коэн, Джоэл Коэн, приключения, драма, вес ...
  • Железная хватка / True Grit (Итэн Коэн, Джоэл Коэн, Вестерн, 2010) [DVD R5, ...
  • Железная хватка / True Grit (Итэн Коэн, Джоэл Коэн, приключения, драма, вес ...
  • Игры джентльменов / The Ladykillers (Итэн Коэн, Джоэл Коэн, триллер, комеди ...
  • Челюсти 3D / Shark Night 3D (Дэвид Р. Эллис, ужасы, триллер, 2011) [HDRip, ...
  • Железная хватка / True Grit (Итэн Коэн, Джоэл Коэн, драма, приключения, ве ...
  • Железная хватка / True Grit (Итан Коэн, Джоэл Коэн, драма, приключения, вес ...
  • Гениальный папа / Father of Invention (Трент Купер, Драма, комедия, 2010) [ ...
  • Глаз шторма / The Eye of the Storm (Фред Скеписи, Драма, 2011) [HDRip, Проф ...
  • Сдохни, Джон Такер / John Tucker Must Die (Бетти Томас, мелодрама, комедия, ...
  • Информация
    Посетители, находящиеся в группе Гости, не могут оставлять комментарии к данной публикации.