вход на сайт

Имя пользователя :
Пароль :

Восстановление пароля Регистрация
Comedy Club / Лучшее (ТВ-шоу, юмор, 07.04.2012) [IPTVRip, Не требуется]
Рейтинг:
(голосов: 1)



[img]{THEME}/images/logopost.png[/img]



Comedy Club / Лучшее

Страна: Россия
Производство: Comedy Club Production
Дата выхода в эфир: 07.04.2012
Жанр: ТВ-шоу, юмор
Режиссёр: ТНТ

В ролях: Гарик Мартиросян, Павел Воля, Тимур Батрутдинов, Сергей Светлаков, Александр А. Ревва, Таш, Гавр, Группа USB - United Sexy Boys, Дуэт им. «Чехова», Сергей Гореликов, Дуэт «Рома и Лёша», Виктор Васильев, Дмитрий Хрусталев, Миша Галустян, Вадим Галыгин, Зураб Матуа, Семён Слепаков, Андрей Аверин, Дмитрий «Люсёк» Сорокин, Александр Незлобин и Элвис
Перевод: Не требуется

Описание: «Comedy Club» был создан в 2005 году командой КВН «Новые армяне», в состав которой входили Артур Джанибекян, Артак Гаспарян, Артур Тумасян, Арташес Саркисян, Гарик Мартиросян и другие. Его идея была задумана ещё в 2001 году, когда Арташес Саркисян, побывав в США, увидел местный «Comedy Club». Временами стали появляться новые участники «Comedy Club», в основном из КВН. 23 апреля 2005 года «Comedy Club» впервые вышел в эфир телеканала ТНТ. Рейтинги программы стали бить все рекорды и это приносило программе большие доходы, на которые они стали делать другие проекты. Впоследствии они создали свою продюсерскую компанию «Comedy Club Production». 15 апреля 2007 года на ТНТ был показан сотый выпуск программы. Регулярно выходят новые выпуски и другие проекты - например спецвыпуски на Первом канале, юмористические фестивали и продюсирование участниками «Comedy Club» проекты других телепередач. 23 апреля 2010 года «Comedy Club» вышло с новой музыкой и обновлённым оформлением. Также «Comedy Club» выходит на каналах ICTV, НТВ+ - Мир и Comedy TV.

Качество: IPTVRip

Продолжительность: 00:32:26

Формат: AVI
Видео кодек: XviD
Аудио кодек:MPEG Layer 3
Свойства видео: 704x384 (1.83:1), 25 fps,~1551 kbps avg, 0.23 bit/pixel
Свойства аудио: 48 kHz, MPEG Layer 3, 1 ch, ~128.00 kbps avg

MediaInfo: ▼TextОбщее
Кол-во : 278
Кол-во потоков такого типа : 1
Тип потока : General
Тип потока : Общее
Идентификатор типа потока : 0
Inform : AVI: 392 Мбайт, 32 м.
Кол-во видеопотоков : 1
Кол-во аудиопотоков : 1
Video_Format_List : MPEG-4 Visual
Video_Format_WithHint_List : MPEG-4 Visual (XviD)
Видеокодеки : XviD
Audio_Format_List : MPEG Audio
Audio_Format_WithHint_List : MPEG Audio (MP3)
Аудиокодеки : MPEG-1 Audio layer 3
Полное имя : D:КазторкаРелизы для казторкиComedy.Club.Best.(07.04.2012).2012.XviD.IPTVRip.avi
Имя папки : D:КазторкаРелизы для казторки
Имя файла : Comedy.Club.Best.(07.04.2012).2012.XviD.IPTVRip
Расширение : avi
Формат : AVI
Формат : AVI
Формат/Информация : Audio Video Interleave
Формат/Используется в : avi
Коммерческое название : AVI
Интернет-тип носителя : video/vnd.avi
Чередующаяся : Yes
Кодек : AVI
Кодек : AVI
Кодек/Информация : Audio Video Interleave
Кодек/Используется в : avi
Размер файла : 410896384
Размер файла : 392 Мбайт
Размер файла : 392 Мбайт
Размер файла : 392 Мбайт
Размер файла : 392 Мбайт
Размер файла : 391,9 Мбайт
Продолжительность : 1946360
Продолжительность : 32 м.
Продолжительность : 32 м. 26 с. 360 мс.
Продолжительность : 32 м.
Продолжительность : 00:32:26.360
Общий поток : 1688881
Общий поток : 1689 Кбит/сек
Размер потока : 2370282
Размер потока : 2,26 Мбайт (1%)
Размер потока : 2 Мбайт
Размер потока : 2,3 Мбайт
Размер потока : 2,26 Мбайт
Размер потока : 2,260 Мбайт
Размер потока : 2,26 Мбайт (1%)
Пропорции потока : 0.00577
Дата файла : UTC 2012-04-08 04:41:52.148
Дата файла (местная) : 2012-04-08 10:41:52.148
Дата изменения файла : UTC 2012-04-08 05:12:12.726
Дата изменения файла (местная) : 2012-04-08 11:12:12.726
Программа кодирования : VirtualDubModRus 1.5.10.2 (build 2542/release)
Библиотека кодирования : VirtualDubMod build 2542/release
Библиотека кодирования : VirtualDubMod build 2542/release

Видео
Кол-во : 205
Кол-во потоков такого типа : 1
Тип потока : Video
Тип потока : Видео
Идентификатор типа потока : 0
Inform : 1551 Кбит/сек, 704*384 (16:9), в 25,0
cf2e98cfeccdf16a0eaf8c797d42e2b74d9b234aComedy Club / Лучшее (ТВ-шоу, юмор, 07.04.2012) [IPTVRip, Не требуется] Comedy Club / Лучшее (ТВ-шоу, юмор, 07.04.2012) [IPTVRip, Не требуется] " />

Аплоадер: Админ, дата: 8-04-2012, 12:40, торрент скачан: 359 раз

Понравилась раздача? Посмотрите эти:
  • Комеди Клаб. Лучшее (ТВ-шоу, юмор, 07.07.2013) [SATRip, Не требуется]
  • Комеди Клаб. Лучшее (ТВ-шоу, юмор, 09.07.2013) [SATRip, Не требуетcя]
  • Комеди клаб. Лучшее / The best of Comedy (Юмор, 29.01.2013) [SATRip, Не тре ...
  • Комеди клаб. Лучшее / The best of Comedy (Юмор, 30.01.2013) [SATRip, Не тре ...
  • Комеди клаб. Лучшее / The best of Comedy (ТВ-шоу, юмор, 31.01.2013) [SATRi ...
  • Comedy Club. Exclusive // Выпуск 1 (ТВ-шоу, юмор, 02.02.2013) [SATRip, Не т ...
  • Комеди клаб. Лучшее / The best of Comedy (ТВ-шоу, юмор, 03.02.2013) [SATRi ...
  • Комеди Клаб. Лучшее / The best of Comedy (ТВ-шоу, юмор, 18.02.2013) [SATRip ...
  • Комеди клаб. Лучшее / The best of Comedy (Юмор, 09.01.2013) [SATRip, Не тре ...
  • Comedy Club // Лучшее (ТВ-шоу, юмор, 09.11.2012) [SATRip, Не требуется]
  • Comedy Club // Лучшее (ТВ-шоу, юмор, 15.12.2012) [SATRip, Не требуется]
  • Comedy Club // Лучшее (ТВ-шоу, юмор, 16.12.2012) [SATRip, Не требуется]
  • Comedy Club // Лучшее (ТВ-шоу, юмор, 17.12.2012) [SATRip, Не требуется]
  • Comedy Club / Лучшее (ТВ-шоу, юмор,15.05.2012) [SATRip, Не требуется]
  • Comedy Club / Лучшее (ТВ-шоу, юмор,04.06.2012) [SATRip, Не требуется]
  • Comedy Club / Лучшее (ТВ-шоу, юмор,14.06.2012) [SATRip, Не требуется]
  • Comedy Club / Лучшее (ТВ-шоу, юмор,15.06.2012) [SATRip, Не требуется]
  • Comedy Club / Лучшее (ТВ-шоу, юмор,17.06.2012) [SATRip, Не требуется]
  • Comedy Club / Лучшее (ТВ-шоу, юмор,21.06.2012) [SATRip, Не требуется]
  • Comedy Club / Лучшее (ТВ-шоу, юмор,30.06.2012) [SATRip, Не требуется]
  • Comedy Club // Лучшее (ТВ-шоу, юмор, 07.07.2012) [SATRip, Не требуется]
  • Comedy Club // Лучшее (ТВ-шоу, юмор, 02.08.2012) [SATRip, Не требуется]
  • Comedy Club // Лучшее (ТВ-шоу, юмор, 06.10.2012) [SATRip, Не требуется]
  • Comedy Club // Лучшее (ТВ-шоу, юмор, 05.10.2012) [SATRip, Не требуется]
  • Comedy Club // Лучшее (ТВ-шоу, юмор, 07.10.2012) [SATRip, Не требуется]
  • Информация
    Посетители, находящиеся в группе Гости, не могут оставлять комментарии к данной публикации.