вход на сайт

Имя пользователя :
Пароль :

Восстановление пароля Регистрация
КВН-2013. Высшая Лига. Третья 1/4 финала (Тв-шоу, юмор, 19.05.2013) [HDTVRip 720p, Не требуется]
Рейтинг:
(голосов: 1)



[img]{THEME}/images/logopost.png[/img]



КВН-2013. Высшая Лига. Третья 1/4 Финала


Страна: Россия
Производство: АМИК / ОАО "1 канал"
Дата выхода в эфир: 19.05.2013
Жанр: ТВ-шоу, юмор

Ведущие: Александр Масляков
Жюри: Михаил Галустян, Валдис Пельш, Константин Эрнст, Игорь Верник, Михаил Ефремов, Юлий Гусман
Перевод: Не требуется

Участники:
"Плохая компания", сборная Красноярского края
"Парапапарам", МГИМО, Москва
"Днепр", сборная Днепропетровской области
"Раисы", Иркутск
Сборная Чеченской республики, Грозный

Описание: Что такое КВН, знают, без сомнения, все. В КВН играют во всем мире, это прежде всего молодежная игра. Постоянные конкурсные задания: "Визитная карточка", "Разминка", "Конкурс капитанов", "Музыкальный конкурс", "Домашнее задание". Игру команд оценивает профессиональное жюри — люди, у которых с чувством юмора все в порядке, многие из них раньше сами играли в КВН.

Качество: HDTVRip 720p
Продолжительность: 01:51:56

Формат: MKV
Видео кодек: H.264
Аудио кодек: AC3
Свойства видео: 1280x720 (16:9), 25,000 fps, AVC, 4600 kpps, 0.2 bit/pixel
Свойства аудио RUS: 48 kHz, AC-3, 2 ch, 384 kbps avg

MediaInfo ▼TextGeneral
Unique ID : 220045231176228397994346563987846584421 (0xA58B2B84157D304C971A2DEB2FF1D865)
Format : Matroska
Format version : Version 4 / Version 2
File size : 3.90 GiB
Duration : 1h 51mn
Overall bit rate : 4 986 Kbps
Encoded date : UTC 2013-05-20 15:30:46
Writing application : mkvmerge v6.2.0 (Promised Land) built on Apr 28 2013 12:22:01
Writing library : libebml v1.3.0 + libmatroska v1.4.0
Attachment : Yes

Video
ID : 1
Format : AVC
Format/Info : Advanced Video Codec
Format profile : [email protected]
Format settings, CABAC : Yes
Format settings, ReFrames : 8 frames
Codec ID : V_MPEG4/ISO/AVC
Duration : 1h 51mn
Bit rate : 4 600 Kbps
Width : 1 280 pixels
Height : 720 pixels
Display aspect ratio : 16:9
Frame rate mode : Constant
Frame rate : 25.000 fps
Color space : YUV
Chroma subsampling : 4:2:0
Bit depth : 8 bits
Scan type : Progressive
Bits/(Pixel*Frame) : 0.200
Stream size : 3.52 GiB (90%)
Writing library : x264 core 128 r2216M 198a7ea
Encoding settings : cabac=1 / ref=9 / deblock=1:0:0 / analyse=0x3:0x133 / me=umh / subme=11 / psy=1 / psy_rd=1.00:0.20 / mixed_ref=1 / me_range=32 / chroma_me=1 / trellis=2 / 8x8dct=1 / cqm=0 / deadzone=21,11 / fast_pskip=0 / chroma_qp_offset=-3 / threads=6 / lookahead_threads=1 / sliced_threads=0 / nr=0 / decimate=1 / interlaced=0 / bluray_compat=0 / constrained_intra=0 / bframes=9 / b_pyramid=1 / b_adapt=2 / b_bias=0 / direct=3 / weightb=1 / open_gop=0 / weightp=2 / keyint=250 / keyint_min=25 / scenecut=40 / intra_refresh=0 / rc_lookahead=40 / rc=2pass / mbtree=1 / bitrate=4600 / ratetol=1.0 / qcomp=0.60 / qpmin=10 / qpmax=51 / qpstep=4 / cplxblur=20.0 / qblur=0.5 / ip_ratio=1.40 / aq=1:1.00
Language : Russian
Default : Yes
Forced : No

Audio
ID : 2
Format : AC-3
Format/Info : Audio Coding 3
Mode extension : CM (complete main)
Format settings, Endianness : Big
Codec ID : A_AC3
Duration : 1h 51mn
Bit rate mode : Constant
Bit rate : 384 Kbps
Channel(s) : 2 channels
Channel positions : Front: L R
Sampling rate : 48.0 KHz
Bit depth : 16 bits
Compression mode : Lossy
Stream size : 307 MiB (8%)
Language : Russian
Default : Yes
Forced : No




1069af898bc3d1a63e63f9031463e016c1397397КВН-2013. Высшая Лига. Третья 1/4 финала (Тв-шоу, юмор, 19.05.2013) [HDTVRip 720p, Не требуется] КВН-2013. Высшая Лига. Третья 1/4 финала (Тв-шоу, юмор, 19.05.2013) [HDTVRip 720p, Не требуется] " />

Аплоадер: Админ, дата: 20-05-2013, 22:33, торрент скачан: 359 раз

Понравилась раздача? Посмотрите эти:
  • КВН. Высшая лига. Финал (юмор, ТВ-шоу, 06.01.2014) [HDTV 1080i, Не требуетс ...
  • КВН. Высшая лига. Первый полуфинал (Тв-шоу, юмор, 20.10.2013) [HDTVRip, Не ...
  • КВН. Высшая лига. Второй полуфинал (Тв-шоу, юмор, 27.10.2013) [HDTVRip, Не ...
  • КВН. Премьер-лига. Вторая 1/8 финала (Тв-шоу, юмор, 20.07.2013) [HDTVRip, Н ...
  • КВН. Премьер-лига. Третья 1/8 финала (Тв-шоу, юмор, 27.07.2013) [HDTVRip, Н ...
  • КВН-2013. Высшая лига. Третья 1/4 финала [19.05.2013, Тв-шоу, юмор, SATRip] ...
  • КВН-2013. Высшая Лига. Третья 1/4 финала (Тв-шоу, юмор, 19.05.2013) [HDTV 1 ...
  • КВН-2013. Высшая Лига. Третья 1/4 финала (Тв-шоу, юмор, 19.05.2013) [HDTVRi ...
  • КВН-2013. Высшая Лига. Первая 1/4 финала (Тв-шоу, юмор, 21.04.2013) [HDTV 1 ...
  • КВН-2013. Высшая Лига. Вторая 1/4 финала (Тв-шоу, юмор, 28.04.2013) [HDTV 1 ...
  • КВН-2013. Высшая Лига. Вторая 1/4 финала (Тв-шоу, юмор, 28.04.2013) [HDTVRi ...
  • КВН-2013. Высшая Лига. Вторая 1/4 финала (Тв-шоу, юмор, 28.04.2013) [HDTVRi ...
  • КВН-2013. Высшая Лига. Четвертая 1/8 Финала (Тв-шоу, юмор, 31.03.2013) [HDT ...
  • КВН-2013. Высшая Лига. Четвертая 1/8 Финала (Тв-шоу, юмор, 31.03.2013) [HDT ...
  • КВН. Высшая Лига. Четвёртая 1/8 Финала (Тв-шоу, юмор, 31.03.2013) [HDTVRip- ...
  • КВН-2013. Высшая Лига. Четвертая 1/8 Финала (Тв-шоу, юмор, 31.03.2013) [HDT ...
  • КВН-2013. Высшая Лига. Вторая 1/8 Финала (Тв-шоу, юмор, 03.03.2013) [SATRip ...
  • КВН / Высшая лига. Первый полуфинал (ТВ-шоу, юмор, 14.10.2012) [SATRip-AVC, ...
  • КВН / Высшая лига. Первый полуфинал (ТВ-шоу, юмор, 14.10.2012) [SATRip, Не ...
  • КВН / Высшая лига. Второй полуфинал (ТВ-шоу, юмор, 28.10.2012) [SATRip, Не ...
  • Информация
    Посетители, находящиеся в группе Гости, не могут оставлять комментарии к данной публикации.