вход на сайт

Имя пользователя :
Пароль :

Восстановление пароля Регистрация
КВН-2013. Первая Лига. 1/4 финала. Вторая игра (Тв-шоу, юмор, 28.06.2013) [IPTVRip, Не требуется]
Рейтинг:
(голосов: 1)



[img]{THEME}/images/logopost.png[/img]



КВН-2013. Первая Лига. 1/4 финала. Вторая игра

Страна: Россия
Производство: АМИК
Дата выхода в эфир: 28.06.2013
Жанр: Тв-шоу, юмор

Ведущий:Леонид Купридо
Жюри: Алесь Мухин, Олег Быковский, Вадим Девитовский, Дмитрий Шедко, Олег Сильванович, Валерий Кравчук, Виталий Новиков
Перевод: Не требуется

Команды:
«Радио Свобода», Ярославль
«ПэПэ», Гомель
«Огни большого города», Москва
«Культурная столица», сборная Пермского края
«Всё серьёзно», Кемерово
R2D2, Харьков
Сборная Костанайской области, Казахстан

Описание:Второй четвертьфинал первой лиги международного союза КВН.

Качество: IPTVRip
Продолжительность:01:31:41

Формат: AVI
Видео кодек: XviD
Аудио кодек: MP3
Свойства видео: 704x528 (4:3), 25 fps, XviD 64 ~1494 kbps avg, 0.16 bit/pixel
Свойства аудио: 48 kHz, MPEG Layer 3, 2 ch, ~128.00 kbps avg

"Тех. данные" ▼
C:ФильмыKVN.28.06.2013.IPTVRip.[kaztorka].avi
General
Complete name : C:ФильмыKVN.28.06.2013.IPTVRip.[kaztorka].avi
Format : AVI
Format/Info : Audio Video Interleave
File size : 1.04 GiB
Duration : 1h 31mn
Overall bit rate : 1 632 Kbps
Writing application : VirtualDubMod 1.5.10.2 (build 2540/release)
Writing library : VirtualDubMod build 2540/release
Video #0
ID : 0
Format : MPEG-4 Visual
Format profile : Advanced [email protected]
Format settings, BVOP : 2
Format settings, QPel : No
Format settings, GMC : No warppoints
Format settings, Matrix : Default (MPEG)
Muxing mode : Packed bitstream
Codec ID : XVID
Codec ID/Hint : XviD
Duration : 1h 31mn
Bit rate : 1 494 Kbps
Width : 704 pixels
Height : 528 pixels
Display aspect ratio : 4:3
Frame rate : 25.000 fps
Color space : YUV
Chroma subsampling : 4:2:0
Bit depth : 8 bits
Scan type : Progressive
Compression mode : Lossy
Bits/(Pixel*Frame) : 0.161
Stream size : 980 MiB (92%)
Writing library : XviD 64
Audio #1
ID : 1
Format : MPEG Audio
Format version : Version 1
Format profile : Layer 3
Mode : Joint stereo
Codec ID : 55
Codec ID/Hint : MP3
Duration : 1h 31mn
Bit rate mode : Constant
Bit rate : 128 Kbps
Channel(s) : 2 channels
Sampling rate : 48.0 KHz
Compression mode : Lossy
Stream size : 83.9 MiB (8%)
Alignment : Aligned on interleaves
 
d00f756cea1e6681cb18157226b0ae08c6543329КВН-2013. Первая Лига. 1/4 финала. Вторая игра (Тв-шоу, юмор, 28.06.2013) [IPTVRip, Не требуется] КВН-2013. Первая Лига. 1/4 финала. Вторая игра (Тв-шоу, юмор, 28.06.2013) [IPTVRip, Не требуется] " />

Аплоадер: Админ, дата: 29-06-2013, 23:24, торрент скачан: 359 раз

Понравилась раздача? Посмотрите эти:
  • Лига Чемпионов 2013-14 / Жеребьевка 1/8 финала / НТВ+ [Футбол, 16.12.2013, ...
  • Кубок Англии 2013-2014 / 1/16 финала / Арсенал (Лондон) - Ковентри Сити (Ко ...
  • Лига Европы 2013-14 / 5-й тур / Краткий обзор матчей за 28.11.2013 / НТВ+ [ ...
  • Чемпионат Италии 2013-14 / Serie A / 2-й тур / Катания — Интер / НТВ+ [Футб ...
  • КВН-2013. Первая Лига. 1/4 финала. Первая игра (Тв-шоу, юмор, 14.06.2013) [ ...
  • КВН-2013. Первая Лига. 1/4 финала. Tретья игра (Тв-шоу, юмор,12.07.2013) [I ...
  • Кубок Германии 2013-14 / DFB Pokal / 1 раунд / Обзор матчей / ТРК Футбол [Ф ...
  • Лига Чемпионов 2012-13 / 1/2 Финала / Первый Матч / Бавария (Германия) — Ба ...
  • Лига Чемпионов 2012-13 / 1/2 Финала / Первый Матч / Боруссия Д (Германия) — ...
  • КВН-2013. Высшая Лига. Вторая 1/4 финала (Тв-шоу, юмор, 28.04.2013) [HDTVRi ...
  • КВН-2013. Высшая Лига. Вторая 1/4 финала (Тв-шоу, юмор, 28.04.2013) [HDTVRi ...
  • Лига Чемпионов 2012-13 / 1/4 финала / Ответный матч / Ювентус (Италия) - Ба ...
  • Лига Чемпионов 2012-13 / 1/4 Финала / Первые Матчи / Обзор матчей за 02.04. ...
  • КВН. Высшая Лига. Первая 1/8 Финала (Тв-шоу, юмор, 24.02.2013) [SATRip, Не ...
  • Кубок Италии 2012-13 / 1/8 Финала / Интер — Верона / Футбол [Футбол, 18.12. ...
  • КВН / Высшая лига / Первая 1/8я финала (Юмор, 06 03 2010) [SATRip, Не требу ...
  • Лига Чемпионов 2011-12 / 1/2 финала / Первый матч / Челси (Англия) - Барсел ...
  • Лига Европы 2011-12 / 1/2 Финала / Первые Матчи / Обзор Матчей в Студии / Н ...
  • Лига Чемпионов 2011-12 / 1/2 финала / Ответный матч / Барселона (Испания) - ...
  • Лига Чемпионов 2011-12 / 1/2 финала / Ответный матч / Реал Мадрид – Бавария ...
  • Лига Чемпионов 2011-12 / 1/2 финала / Ответный матч / Реал Мадрид (Испания) ...
  • NBA Finals 2012 / NBA Tonight / Рассуждения на тему предстоящего финала / V ...
  • NBA Finals 2012 / Sportscenter / Четвертая игра под микроскопом / Viasat Sp ...
  • ХХХ Летние Олимпийские Игры / Лёгкая атлетика / День 7 / Финалы и Полуфинал ...
  • Лига Европы 2012-13 / 5-й тур / Группа А / Анжи (Россия) - Удинезе (Италия) ...
  • Информация
    Посетители, находящиеся в группе Гости, не могут оставлять комментарии к данной публикации.