вход на сайт

Имя пользователя :
Пароль :

Восстановление пароля Регистрация
КВН-2011 / Высшая лига / Финал (ТВ-шоу, Юмор, 30.12.2011) [DVB, Не требуется]
Рейтинг:
(голосов: 1)



[img]{THEME}/images/logopost.png[/img]



КВН - 2011.Высшая лига.Финал


Страна:Россия.
Дата выхода в эфир:30.12.2011.
Жанр:ТВ-шоу,Юмор
Производство:PОАО "1 канал".

Ведущий: Александр Масляков.
Команды: «МСЭБ, Станция Спортивная» - Москва; «СОК» - Самара; «Парапапарам» - МГИМО Москва; «ГородЪ ПятигорскЪ» - сборная Пятигорска.
Жюри: Константин Эрнст, Юлий Гусман, Михаил Ефремов, Леонид Ярмольник, Дмитрий Нагиев, Игорь Верник.
Перевод: Не требуется.
Тема игры: Есть только миг между прошлым и будущим.

Описание:Завершается юбилейный сезон. С уверенностью можно сказать: сезон был явно не лучшим. Да, в нём были как яркие, так и крайне неудачные моменты. Была предпринята попытка изменить систему сезона и формат вещания. Премьер-лига обкатывала систему МСЛ, Высшая лига пропустила летний кубок, Высшая Украинская вообще была отменена, 50 Виртуальных игр не прошли и наполовину... Но ещё есть надежда на последнюю игру.

Качество:DVB
Продолжительность:01:56:41

Формат:MPEG
Видео кодек:MPEG2
Аудио кодек:MPEG1 Layer 2
Видео:1024x576 (16:9) 25.00fps 4 171 Kbps
Аудио:MPEG Audio 48000Hz stereo 192 kbps "MediaInfo" ▼
General
Complete name : D:VideoКВНКВН-2011. КВН-2011. Высшая лига.Финал.mpg
Format : MPEG-PS
File size : 3.63 GiB
Duration : 1h 56mn
Overall bit rate : 4 452 Kbps
Video #224
ID : 224 (0xE0)
Format : MPEG Video
Format version : Version 2
Format profile : [email protected]
Format settings, BVOP : Yes
Format settings, Matrix : Custom
Duration : 1h 56mn
Bit rate mode : Variable
Bit rate : 4 171 Kbps
Nominal bit rate : 15.0 Mbps
Width : 720 pixels
Height : 576 pixels
Display aspect ratio : 16:9
Frame rate : 25.000 fps
Standard : PAL
Color space : YUV
Chroma subsampling : 4:2:0
Bit depth : 8 bits
Scan type : Interlaced
Scan order : Top Field First
Compression mode : Lossy
Bits/(Pixel*Frame) : 0.402
Stream size : 3.40 GiB (94%)
Audio #192
ID : 192 (0xC0)
Format : MPEG Audio
Format version : Version 1
Format profile : Layer 2
Duration : 1h 56mn
Bit rate mode : Constant
Bit rate : 192 Kbps
Channel(s) : 2 channels
Sampling rate : 48.0 KHz
Compression mode : Lossy
Delay relative to video : -40ms
Stream size : 160 MiB (4%)



f26ebd4f85a19e06072d67d97335b4e851a08066КВН-2011 / Высшая лига / Финал (ТВ-шоу, Юмор, 30.12.2011) [DVB, Не требуется] КВН-2011 / Высшая лига / Финал (ТВ-шоу, Юмор, 30.12.2011) [DVB, Не требуется] " />

Аплоадер: Админ, дата: 31-12-2011, 21:28, торрент скачан: 359 раз

Понравилась раздача? Посмотрите эти:
  • КВН. Высшая лига. Финал (юмор, ТВ-шоу, 06.01.2014) [HDTV 1080i, Не требуетс ...
  • КВН / Высшая лига. Первый полуфинал (ТВ-шоу, юмор, 14.10.2012) [SATRip-AVC, ...
  • КВН-2012 / Высшая лига / Финал (ТВ-шоу, юмор, 28.12.2012) [SATRip, Не требу ...
  • КВН-2012 / Высшая лига / Финал (ТВ-шоу, юмор, 28.12.2012) [HDTVRip-AVC, Не ...
  • КВН 2009.Высшая лига.Первый полуфинал (Юмор,25.10.09) [TVRip]
  • КВН 2009.Высшая лига.Финал (Юмор,27.12.09) [TVRip]
  • КВН / Высшая лига / Первая 1/8я финала (Юмор, 06 03 2010) [SATRip, Не требу ...
  • КВН 2010 / Высшая лига / Финал (ТВ-шоу, юмор, КВН, 24.12.2010) [SATRip, Не ...
  • КВН-2011 / Высшая лига / Первая 1/8 финала (ТВ-шоу, юмор, 18.02.2011) [SATR ...
  • КВН-2011 / Высшая лига / Вторая 1/8 финала (ТВ-шоу, юмор, 05.03.2011) [SATR ...
  • КВН-2011 / Высшая лига / Третья 1/8 финала (ТВ-шоу, юмор, 11.03.2011) [SATR ...
  • КВН-2011 / Высшая лига / Вторая 1/4 финала (ТВ-шоу, юмор, 13.05.2011) [SATR ...
  • КВН-2011 / Высшая лига / Третья 1/4 финала (ТВ-шоу, юмор, 27.05.2011) [SATR ...
  • КВН-2011 / Премьер лига / Финал (ТВ-шоу, юмор, 11.09.2011) [SATRip, Не треб ...
  • КВН-2011 / Высшая лига / Первая 1/2 финала (ТВ-шоу, юмор, 14.10.2011) [SATR ...
  • КВН-2011 / Высшая лига / Вторая 1/2 финала (ТВ-шоу, юмор, 28.10.2011) [SATR ...
  • КВН / Высшая лига / Финал (ТВ-шоу, юмор, 30.12.2011) [SATRip, Не требуется] ...
  • КВН-2011 / Высшая лига / Финал (ТВ-шоу, 30.12.2011) [QWERTY.TVRip, Не требу ...
  • КВН-2011 / Высшая лига / Финал (ТВ-шоу, Юмор, 30.12.2011) [QWERTY.TVRemux, ...
  • КВН-2012 / Высшая лига / Вторая 1/8 финала (ТВ-шоу, юмор, 26.02.2012) [SATR ...
  • КВН-2012 / Высшая лига / Третья 1/8 финала (ТВ-шоу, юмор, 18.03.2012) [SATR ...
  • КВН-2012 / Высшая лига / Четвертая 1/8 финала (ТВ-шоу, юмор, 01.04.2012) [S ...
  • КВН-2012 / Высшая лига / Первая 1/4 финала (ТВ-шоу, юмор, 22.04.2012) [SATR ...
  • КВН-2012 / Высшая лига / Вторая 1/4 финала (ТВ-шоу, юмор, 07.05.2012) [SATR ...
  • КВН-2012 / Высшая лига / Третья 1/4 финала (ТВ-шоу, юмор, 20.05.2012) [SATR ...
  • Информация
    Посетители, находящиеся в группе Гости, не могут оставлять комментарии к данной публикации.