вход на сайт

Имя пользователя :
Пароль :

Восстановление пароля Регистрация
Вечерний Ургант // Сезон 2. Выпуск 56 (ТВ-шоу, 11.12.2012) [SATRip, Не требуется]
Рейтинг:
(голосов: 1)



[img]{THEME}/images/logopost.png[/img]



• Вечерний Ургант // Сезон 2. Выпуск 56 •
♥ Страна: Россия
♥ Производство: ОАО "Первый канал"
♥ Дата выхода в эфир: 11.12.2012
♥ Жанр: Тв-Шоу

♥ Ведущие: Иван Ургант и Александр Гудков
♥ Гости: Павел Воля, Алла Михеева, Natalia Kills и "ФРУКТЫ"

♥ Перевод: Не требуется

♥ Описание: Каждый вечер с понедельника по четверг за полчаса до полуночи Иван Ургант провожает этот день вместе с вами. С хорошим настроением, хорошей музыкой и теми людьми, которые ему интересны. "Вечерний Ургант" с понедельника по четверг

♥ Качество: SATRip
♥ Продолжительность: 00:32:01

♥ Формат: AVI
♥ Видео кодек: XviD
♥ Аудио кодек: MP3
♥ Свойство видео: 720x400(16:9),25.000 fps, MPEG-4/ASP 1649 kbps avg, 0.229 bit/pixel
♥ Свойство аудио: 48 kHz, MPEG-1 Layer 3, 2 ch, ~128 kbps avg

"Mediainfo" ▼
Формат : AVI
Формат/Информация : Audio Video Interleave
Размер файла : 412 Мбайт
Продолжительность : 32 м.
Общий поток : 1787 Кбит/сек
Программа кодирования : VirtualDubMod 1.5.10.3 (build 2550/release)
Библиотека кодирования : VirtualDubMod build 2550/release
Правообладатель : Shuriman

Видео
Идентификатор : 0
Формат : MPEG-4 Visual
Параметр BVOP формата : 1
Параметр QPel формата : Нет
Параметр GMC формата : Без точки перехода
Параметр матрицы формата : Default (H.263)
Режим смешивания : Сжатый битовый поток
Идентификатор кодека : DX50
Идентификатор кодека/Подсказка : DivX 5
Продолжительность : 32 м.
Битрейт : 1649 Кбит/сек
Ширина : 720 пикселей
Высота : 400 пикселей
Соотношение сторон : 16:9
Частота кадров : 25,000 кадров/сек
Цветовое пространство : YUV
Субдискретизация насыщенности : 4:2:0
Битовая глубина : 8 бит
Тип развёртки : Прогрессивная
Метод сжатия : С потерями
Бит/(Пиксели*Кадры) : 0.229
Размер потока : 380 Мбайт (92%)
Библиотека кодирования : DivX 6.8.5 (UTC 2009-08-20)

Аудио
Идентификатор : 1
Формат : MPEG Audio
Версия формата : Version 1
Профиль формата : Layer 3
Режим : Joint stereo
Расширение режима : MS Stereo
Идентификатор кодека : 55
Идентификатор кодека/Подсказка : MP3
Продолжительность : 32 м.
Вид битрейта : Постоянный
Битрейт : 128 Кбит/сек
Каналы : 2 канала
Частота : 48,0 КГц
Метод сжатия : С потерями
Размер потока : 29,5 Мбайт (7%)
Выравнивание : Разделение по промежуткам
Продолжительность промежутка : 40 мс. (1,00 видеокадр)
Время предзагрузки промежутка : 500 мс.


Релиз Группы "Virtus"

Стол заказов / Вступление в РГ / Благодарности, критика и другое


2bf9c3cee40bf574ac38c97f68955b8e3bd01666Вечерний Ургант // Сезон 2. Выпуск 56 (ТВ-шоу, 11.12.2012) [SATRip, Не требуется] Вечерний Ургант // Сезон 2. Выпуск 56 (ТВ-шоу, 11.12.2012) [SATRip, Не требуется] " />

Аплоадер: Админ, дата: 12-12-2012, 11:30, торрент скачан: 359 раз

Понравилась раздача? Посмотрите эти:
  • Вечерний Ургант // Сезон 2, выпуск 57 (ТВ-шоу, 12.12.2012) [SATRip, Не треб ...
  • Вечерний Ургант // Сезон 2. Выпуск 62 (ТВ-шоу, 19.12.2012) [SATRip, Не треб ...
  • Вечерний Ургант // Сезон 2. Выпуск 63 (ТВ-шоу, 20.12.2012) [SATRip, Не треб ...
  • Вечерний Ургант // Сезон 2. Выпуск 64 (ТВ-шоу, 21.12.2012) [SATRip, Не треб ...
  • Вечерний Ургант // Сезон 2. Выпуск 66 (ТВ-шоу, 25.12.2012) [SATRip, Не треб ...
  • Вечерний Ургант // Сезон 2, выпуск 67 (ТВ-шоу, 26.12.2012) [SATRip, Не треб ...
  • Вечерний Ургант // Сезон 2. Выпуск 68 (ТВ-шоу, 27.12.2012) [SATRip, Не треб ...
  • Вечерний Ургант // Сезон 2, выпуск 69 (ТВ-шоу, 28.12.2012) [SATRip, Не треб ...
  • Вечерний Ургант // Выпуск 1 (ТВ-шоу, 16.04.2012) [SATRip, Не требуется]
  • Вечерний Ургант // Выпуск 2 (ТВ-шоу, 17.04.2012) [SATRip, Не требуется]
  • Вечерний Ургант // Выпуск 3 (ТВ-шоу, 18.04.2012) [SATRip, Не требуется]
  • Вечерний Ургант // Выпуск 4 (ТВ-шоу, 19.04.2012) [SATRip, Не требуется]
  • Вечерний Ургант // Выпуск 5 (ТВ-шоу, 23.04.2012) [SATRip, Не требуется]
  • Вечерний Ургант // Выпуск 10 (ТВ-шоу, 2.05.2012) [SATRip, Не требуется]
  • Вечерний Ургант // Выпуск 12 (ТВ-шоу, 4.05.2012) [SATRip, Не требуется]
  • Вечерний Ургант // Выпуск 13 (ТВ-шоу, 10.05.2012) [SATRip, Не требуется]
  • Вечерний Ургант // Выпуск 14 (ТВ-шоу, 11.05.2012) [SATRip, Не требуется]
  • Вечерний Ургант // Выпуск 15 (ТВ-шоу, 14.05.2012) [SATRip, Не требуется]
  • Вечерний Ургант // Выпуск 17 (ТВ-шоу, 16.05.2012) [SATRip, Не требуется]
  • Вечерний Ургант // Выпуск 19 (ТВ-шоу, 21.05.2012) [SATRip, Не требуется]
  • Вечерний Ургант // Выпуск 20 (ТВ-шоу, 22.05.2012) [SATRip, Не требуется]
  • Вечерний Ургант // Выпуск 21 (ТВ-шоу, 23.05.2012) [SATRip, Не требуется]
  • Вечерний Ургант // Сезон 2. Выпуск 1 (ТВ-шоу, 17.09.2012) [SATRip, Не требу ...
  • Вечерний Ургант // Сезон 2, выпуск 48 (ТВ-шоу, 29.11.2012) [SATRip, Не треб ...
  • Вечерний Ургант // Сезон 2, выпуск 49 (ТВ-шоу, 29.11.2012) [SATRip, Не треб ...
  • Информация
    Посетители, находящиеся в группе Гости, не могут оставлять комментарии к данной публикации.