вход на сайт

Имя пользователя :
Пароль :

Восстановление пароля Регистрация
Голос // Выпуск 13 / Суперфинал (ТВ-шоу, 29.12.2012) [HDTVRip |720p|, Не требуется]
Рейтинг:
(голосов: 1)



[img]{THEME}/images/logopost.png[/img]



Голос / Выпуск 13 / Суперфинал

Страна: Россия
Производство: Студия "Красный квадрат"
Дата выхода в эфир: 29.12.2012
Жанр: ТВ-Шоу

Режиссёр: Андрей Сычeв
Ведущие: Дмитрий Нагиев
Участники: Пелагея, Дима Билан, Александр Градский, Леонид Агутин, конкурсанты

Перевод: Не требуется

Описание: Финишная прямая, в строю наставников осталось только по одному исполнителю, которые померяются голосами в грандиозном суперфинале. И только один из них станет обладателем титула «Лучший голос страны» и удостоится главного приза!

Все выпуски

Качество: HDTVRip |720p|
Продолжительность: 02:14:15

Формат: MKV
Видео кодек: AVC
Аудио кодек: AC3
Свойства видео: 1280х720 (16:9), 25 fps, ~2500 kbps avg, 0.115 bit/pixel
Свойства аудио: 48 kHz, AC3, 2 ch, ~384.00 kbps avg

Техданные: ▼
Text
General
Unique ID : 192785765758211136678363458871921742539 (0x9109301B09359889852C7BB4923412CB)
Format : Matroska
Format version : Version 2
File size : 2.72 GiB
Duration : 2h 14mn
Overall bit rate : 2 905 Kbps
Encoded date : UTC 2012-12-30 02:54:31
Writing application : mkvmerge v5.6.0 (Kenya Kane) built on Jun 29 2012 15:01:44
Writing library : libebml v1.2.3 + libmatroska v1.3.0
Video #1
ID : 1
Format : AVC
Format/Info : Advanced Video Codec
Format profile : [email protected]
Format settings, CABAC : Yes
Format settings, ReFrames : 8 frames
Codec ID : V_MPEG4/ISO/AVC
Duration : 2h 14mn
Bit rate : 2 500 Kbps
Width : 1 280 pixels
Height : 720 pixels
Display aspect ratio : 16:9
Frame rate : 23.976 fps
Color space : YUV
Chroma subsampling : 4:2:0
Bit depth : 8 bits
Scan type : Progressive
Bits/(Pixel*Frame) : 0.113
Stream size : 2.31 GiB (85%)
Writing library : x264 core 125 r2200 999b753
Encoding settings : cabac=1 / ref=8 / deblock=1:-1:-1 / analyse=0x3:0x133 / me=umh / subme=7 / psy=1 / psy_rd=1.00:0.10 / mixed_ref=1 / me_range=16 / chroma_me=1 / trellis=2 / 8x8dct=1 / cqm=0 / deadzone=21,11 / fast_pskip=0 / chroma_qp_offset=-3 / threads=12 / lookahead_threads=2 / sliced_threads=0 / nr=0 / decimate=1 / interlaced=0 / bluray_compat=0 / constrained_intra=0 / bframes=3 / b_pyramid=2 / b_adapt=2 / b_bias=0 / direct=1 / weightb=1 / open_gop=0 / weightp=2 / keyint=250 / keyint_min=23 / scenecut=40 / intra_refresh=0 / rc_lookahead=50 / rc=abr / mbtree=1 / bitrate=2500 / ratetol=1.0 / qcomp=0.60 / qpmin=0 / qpmax=69 / qpstep=4 / ip_ratio=1.40 / aq=1:1.00
Default : Yes
Forced : No
Audio #2
ID : 2
Format : AC-3
Format/Info : Audio Coding 3
Mode extension : CM (complete main)
Codec ID : A_AC3
Duration : 2h 14mn
Bit rate mode : Constant
Bit rate : 384 Kbps
Channel(s) : 2 channels
Channel positions : Front: L R
Sampling rate : 48.0 KHz
Bit depth : 16 bits
Compression mode : Lossy
Stream size : 369 MiB (13%)
Default : Yes
Forced : No





570ad07c8e474c771c292614691df6fc4a97c70eГолос // Выпуск 13 / Суперфинал (ТВ-шоу, 29.12.2012) [HDTVRip |720p|, Не требуется] Голос // Выпуск 13 / Суперфинал (ТВ-шоу, 29.12.2012) [HDTVRip |720p|, Не требуется] " />

Аплоадер: Админ, дата: 30-12-2012, 21:05, торрент скачан: 359 раз

Понравилась раздача? Посмотрите эти:
  • Чемпионат Англии 2013-2014 / Английский акцент / 16-й тур / Обзор / НТВ+ [1 ...
  • Чемпионат Англии 2013-2014 / Английский акцент / Обзор 17 тура / НТВ+ [футб ...
  • FLO / NRG [2012, Pop, Dance, MasterRip]
  • Чемпионат Испании 2012-13 / 34-й тур / Обзор Тура / НТВ+ [06.05.2013, 720p, ...
  • UFC The Ultimate 100 Knockouts - PPV [MMA,2013, HDTVRip 720p]
  • Чемпионат Мира по хоккею 2013 / Четвертьфинал / Россия - США / 1 HD [Хокке ...
  • Чемпионат Англии 2012-2013 / 38 тур / Ньюкасл Юнайтед - Арсенал / Спорт 1 H ...
  • Лига Чемпионов 2011-12 / 1/2 финала / Ответный матч / Барселона (Испания) - ...
  • Футбольный клуб / Чемпионат Европы 2012 / НТВ+ [Футбол, 08.06.2012, HDTVRip ...
  • Чемпионат Европы 2012 / Группа C / 1-й тур / Ирландия — Хорватия / Спорт 1 ...
  • Чемпионат Европы 2012 / 1/4 финала / Чехия - Португалия / Спорт 1 HD [Футбо ...
  • Чемпионат Европы 2012 / 1/2 финала / Португалия - Испания / Спорт 1 HD [Фу ...
  • Чемпионат Европы 2012 / 1/2 финала / Германия - Италия / Спорт 1 HD [Футбо ...
  • Чемпионат Европы 2012 / Финал / Испания - Италия / Спорт 1 HD [Футбол, 01. ...
  • Все голы Евро-2012 [Футбол,2012, HDTVRip]
  • Chelsea - Season Review 2011-12 / Челси - Обзор Сезона 2011-12 [ Футбол, 20 ...
  • Формула 1. Сезон 2012. Этап 13 из 20. Гран-При Италии, Квалификация. [2012 ...
  • Английская Премьер-Лига 2012-13 / Тур 20 / Арсенал - Ньюкасл Юнайтед [футбо ...
  • Mylene Farmer / Du Temps [2011, Pop, HDTVRip]
  • Mylene Farmer / Bleu Noir [2011, Pop, HDTVRip]
  • Английская Премьер-Лига 2012-13 / Тур 19 / Манчестер Юнайтед - Ньюкасл Юнай ...
  • Голос // Выпуск 13 / Суперфинал (ТВ-шоу, 29.12.2012) [HDTV |1080i|, Не треб ...
  • Madonna / Girl Gone Wild [2012, Pop, HDTV]
  • The Dream Team - NBA TV Documentary [Баскетбол,13.06.2012, HDTVRip/720p, MP ...
  • Церемония открытия летних Олимпийских игр 2012 в Лондоне. НТВ + [27.08.2012 ...
  • Информация
    Посетители, находящиеся в группе Гости, не могут оставлять комментарии к данной публикации.