вход на сайт

Имя пользователя :
Пароль :

Восстановление пароля Регистрация
Рассмеши комика // 3 сезон, 2 выпуск (ТВ-Шоу, Юмор, 24/03/2012) [SATRip, Оригинал]
Рейтинг:
(голосов: 1)



[img]{THEME}/images/logopost.png[/img]



Рассмеши комика // 3 сезон, 2 выпуск

Страна: Украина
Производство: ОАО "iНТЕР", "Студия Квартал-95"
Дата выхода в эфир: 24/03/2012
Жанр: ТВ-шоу, юмор
Режиссёр: Михаил Комаровский
Ведущие: Дмитрий Шепелев
Игроки/ или Участники: Михаил Галустян, Владимир Зеленский и др.
Перевод: Оригинал

Описание:
Рассмешить своего знакомого или родственника - это одно дело, а вот заставить смеяться человека, который всю свою жизнь профессионально занимается юмором - такая задача по зубам далеко не каждому... Зато того, кому удастся рассмешить Женю Кошевого и Вову Зеленского, ждет солидное денежное вознаграждение! В народной развлекательной программе "Рассмеши комика" любой человек, обладающий комическим талантом, имеет возможность заработать целых 50 000 гривен.Никаких жестких правил, никаких серьезных ограничений: заставил комиков смеяться – получи деньги!

Релиз:

Качество: SATRip

Продолжительность: 45 м. 7 с. 560 мс.

Формат: AVI
Видео кодек: DivX
Аудио кодек: MP3
Свойства видео: 640x480 (1.33:1), 25 fps, DivX Codec 6.8.5/6.9.1 ~1400 kbps avg, 0.18 bit/pixel
Свойства аудио: 48 kHz, MPEG Layer 3, 2 ch, ~128.00 kbps avg

MediaInfo: ▼TextОбщее
Кол-во : 278
Кол-во потоков такого типа : 1
Тип потока : General
Тип потока : Общее
Идентификатор типа потока : 0
Inform : AVI: 497 Мбайт, 45 м.
Кол-во видеопотоков : 1
Кол-во аудиопотоков : 1
Video_Format_List : MPEG-4 Visual
Video_Format_WithHint_List : MPEG-4 Visual (DivX 5)
Видеокодеки : DivX 5
Audio_Format_List : MPEG Audio
Audio_Format_WithHint_List : MPEG Audio (MP3)
Аудиокодеки : MPEG-1 Audio layer 3
Полное имя : D:КазторкаРелизы для казторкиKomik.s3.e2.2012.SATRip[kaztorka.org].avi
Имя папки : D:КазторкаРелизы для казторки
Имя файла : Komik.s3.e2.2012.SATRip[kaztorka.org]
Расширение : avi
Формат : AVI
Формат : AVI
Формат/Информация : Audio Video Interleave
Формат/Используется в : avi
Коммерческое название : AVI
Интернет-тип носителя : video/vnd.avi
Чередующаяся : Yes
Кодек : AVI
Кодек : AVI
Кодек/Информация : Audio Video Interleave
Кодек/Используется в : avi
Размер файла : 520632104
Размер файла : 497 Мбайт
Размер файла : 497 Мбайт
Размер файла : 497 Мбайт
Размер файла : 497 Мбайт
Размер файла : 496,5 Мбайт
Продолжительность : 2707560
Продолжительность : 45 м.
Продолжительность : 45 м. 7 с. 560 мс.
Продолжительность : 45 м.
Продолжительность : 00:45:07.560
Общий поток : 1538306
Общий поток : 1538 Кбит/сек
Размер потока : 3279307
Размер потока : 3,13 Мбайт (1%)
Размер потока : 3 Мбайт
Размер потока : 3,1 Мбайт
Размер потока : 3,13 Мбайт
Размер потока : 3,127 Мбайт
Размер потока : 3,13 Мбайт (1%)
Пропорции потока : 0.00630
Дата файла : UTC 2012-03-25 05:45:54.449
Дата файла (местная) : 2012-03-25 11:45:54.449
Дата изменения файла : UTC 2012-03-25 06:23:37.624
Дата изменения файла (местная) : 2012-03-25 12:23:37.624
Программа кодирования : VirtualDubMod 1.5.10.2 (build 2540/release)
Библиотека кодирования : VirtualDub build 29808/release
Библиотека кодирования : VirtualDub build 29808/release

Видео
Кол-во : 205
Кол-во потоков такого типа : 1
Тип потока : Video
Тип потока : Видео
Идентификатор типа потока : 0
Inform : 1401 Кбит/сек, 640*480 (4:3), в 25,000 кадров/сек, MPEG-4 Visual (DivX 5) (Сжатый битовый поток) (BVOP1)
Идентификатор : 0
Идентификатор : 0
Формат : MPEG-4 Visual
Коммерческое название : MPEG-4 Visual
Настройки формата : BVOP1
Параметр BVOP формата : 1
Параметр BVOP формата : 1
Параметр QPel формата : No
Параметр QPel формата : Нет
Параметр GMC формата : 0
Параметр GMC формата : Без точки перехода
Параметр матрицы формата : Default (H.263)
Параметр матрицы формата : Default (H.263)
Интернет-тип носителя : video/MP4V-ES
Режим смешивания : Сжатый битовый поток
Идентификатор кодека : DX50
Идентификатор кодека/Подсказка : DivX 5
Идентификатор кодека/Ссылка : http://mediaarea.net/DX50
Кодек : DX50
Кодек : DivX 5
Кодек/Семейство : MPEG-4V
Код
33deaa587758c23d3196636ae10f0004ffc9a326Рассмеши комика // 3 сезон, 2 выпуск (ТВ-Шоу, Юмор, 24/03/2012) [SATRip, Оригинал] Рассмеши комика // 3 сезон, 2 выпуск (ТВ-Шоу, Юмор, 24/03/2012) [SATRip, Оригинал] " />

Аплоадер: Админ, дата: 25-03-2012, 12:30, торрент скачан: 359 раз

Понравилась раздача? Посмотрите эти:
  • Пути ненависти / Paths of Hate (Дамиан Ненов, мультфильм, короткометражка, ...
  • Рассмеши комика / Розсміши коміка // Сезон 4. Выпуск 6 (ТВ-шоу, юмор, 08.12 ...
  • Рассмеши комика / Розсміши коміка // Сезон 4. Выпуск 8 (ТВ-шоу, юмор, 22.12 ...
  • Рассмеши комика // Выпуск 11 (ТВ-Шоу, Юмор, 07.05.2011) [SATRip, Оригинал] ...
  • Рассмеши комика // Сезон 2. Выпуск 5 (ТВ-Шоу, Юмор, 01.10.2011) [SATRip, Ор ...
  • Рассмеши комика // Сезон 2. Выпуск 7 (ТВ-Шоу, Юмор, 15.10.2011) [SATRip, Ор ...
  • Три банана (Михаил Ботов, Мультфильм, 1971) [SATRip, Не требуется]
  • Экстрасенсы ведут расследование // Сезон 3, Выпуск 2 (20) (Паранормальное ш ...
  • [NG] Мегазаводы: Уильямс F1 / Megafactories: Williams F1 (документальный, н ...
  • Рассмеши комика / Розсміши коміка // Сезон 3. Выпуск 1 (ТВ-шоу, юмор, 17.03 ...
  • Очень страшное кино 3 / Scary Movie 3 (Дэвид Цукер, Комедия, 2003) [HDTVRip ...
  • Голый пистолет: из архивов полиции! / The Naked Gun: From the Files of Poli ...
  • Очень страшное кино 4 / Scary Movie 4 [Unrated] (Дэвид Цукер , Комедия, 200 ...
  • Рассмеши комика / Розсміши коміка // Сезон 3. Выпуск 3 (ТВ-шоу, юмор, 31.03 ...
  • Comedy Club / Лучшее (ТВ-шоу, юмор, 07.04.2012) [IPTVRip, Не требуется]
  • Рассмеши комика / Розсміши коміка // Сезон 3. Выпуск 4 (ТВ-шоу, юмор, 07.04 ...
  • Рассмеши комика / Розсміши коміка // Сезон 3. Выпуск 5 (ТВ-шоу, юмор, 14.04 ...
  • Рассмеши комика / Розсміши коміка // Сезон 3. Выпуск 6 (ТВ-шоу, юмор, 21.04 ...
  • Рассмеши комика / Розсміши коміка // Сезон 3. Выпуск 7 (ТВ-шоу, юмор, 28.04 ...
  • Рассмеши комика / Розсміши коміка // Сезон 3. Выпуск 8 (ТВ-шоу, юмор, 12.05 ...
  • Информация
    Посетители, находящиеся в группе Гости, не могут оставлять комментарии к данной публикации.