вход на сайт

Имя пользователя :
Пароль :

Восстановление пароля Регистрация
Паладин / Dawn Of The Dragonslayer (Энн К. Блэк, фэнтези, боевик, приключения, 2011г.) [BDRip 720p, Профессиональное (многоголосое) + English + Субтитры]
Рейтинг:
(голосов: 1)



[img]{THEME}/images/logopost.png[/img]



Паладин / Dawn Of The Dragonslayer
Ему суждено стать великим войном

Год выпуска: 2011
Страна: США
Производство: Arrowstorm Entertainment
Жанр:фэнтези, боевик, приключения

Режиссёр: Энн К. Блэк
В ролях: Ричард МакУильямс, Никки Поснер, Филип Броди, Йен Каллен, Мэгги Дэниелс, Майкл О’Флаэрти, Энтони Мерфи, Адам Джонсон, Ник Девлин, Киаран О’Грэйди, Лемюэль Блэк

Перевод: Профессиональное (многоголосое)+ English
Субтитры: Russian

Описание: Уилл и его отец живут простой, пастырской жизнью в горах, равнодушные к происходящему на соседних низменностях. Когда отца Уилла убивает дракон, сын должен спуститься вниз с горы и использовать все свои силы, чтобы отомстить за отца

IMDB: рейтинг 3.50/10 (688)
КиноПоиск: рейтинг 3.500/10 (152)


Качество: BDRip 720p
Продолжительность: 01:41:43

Формат: MKV
Главы: (нет)
Видео кодек: MPEG4
Аудио кодек: (AC3, DTS)
Видео: 1 280x720 (16:9), 23.976 fps, MPEG4, ~ 4 630 kbps avg, 0.210 bit/pix
Аудио: Russian, 5.1 / 48 kHz / 384kbps (6 ch) (Профессиональное (многоголосое)
Аудио: English, 5.1 / 48 kHz / 1 510kbps

MediaInfo ▼
General
Unique ID : 215906031404252521231628862150948771980 (0xA26DFD36050ED49893855FD3DAD9588C)
Complete name : Paladin.2011.P.BDRip,720p
Format : Matroska
Format version : Version 2
File size : 4.64 GiB
Duration : 1h 41mn
Overall bit rate : 6 522 Kbps
Movie name : IRONCLUB
Encoded date : UTC 2012-08-08 16:27:36
Writing application : mkvmerge v4.9.1 (Ich will) built on Jul 11 2011 23:53:15
Writing library : libebml v1.2.1 + libmatroska v1.1.1

Video
ID : 1
Format : AVC
Format/Info : Advanced Video Codec
Format profile : [email protected]
Format settings, CABAC : Yes
Format settings, ReFrames : 5 frames
Codec ID : V_MPEG4/ISO/AVC
Duration : 1h 41mn
Bit rate : 4 630 Kbps
Width : 1 280 pixels
Height : 720 pixels
Display aspect ratio : 16:9
Frame rate : 23.976 fps
Color space : YUV
Chroma subsampling : 4:2:0
Bit depth : 8 bits
Scan type : Progressive
Bits/(Pixel*Frame) : 0.210
Stream size : 3.20 GiB (69%)
Writing library : x264 core 120 r2145 748fe16
Encoding settings : cabac=1 / ref=5 / deblock=1:-1:-1 / analyse=0x3:0x113 / me=umh / subme=7 / psy=1 / psy_rd=1.00:0.00 / mixed_ref=1 / me_range=16 / chroma_me=1 / trellis=1 / 8x8dct=1 / cqm=0 / deadzone=21,11 / fast_pskip=1 / chroma_qp_offset=-2 / threads=12 / sliced_threads=0 / nr=0 / decimate=1 / interlaced=0 / bluray_compat=0 / constrained_intra=0 / bframes=3 / b_pyramid=2 / b_adapt=2 / b_bias=0 / direct=3 / weightb=1 / open_gop=0 / weightp=2 / keyint=250 / keyint_min=23 / scenecut=40 / intra_refresh=0 / rc_lookahead=40 / rc=2pass / mbtree=1 / bitrate=4630 / ratetol=1.0 / qcomp=0.60 / qpmin=0 / qpmax=69 / qpstep=4 / cplxblur=20.0 / qblur=0.5 / vbv_maxrate=50000 / vbv_bufsize=50000 / nal_hrd=none / ip_ratio=1.40 / aq=1:1.00
Language : English
Default : Yes
Forced : Yes

Audio #1
ID : 2
Format : AC-3
Format/Info : Audio Coding 3
Mode extension : CM (complete main)
Codec ID : A_AC3
Duration : 1h 41mn
Bit rate mode : Constant
Bit rate : 384 Kbps
Channel(s) : 6 channels
Channel positions : Front: L C R, Side: L R, LFE
Sampling rate : 48.0 KHz
Bit depth : 16 bits
Compression mode : Lossy
Stream size : 280 MiB (6%)
Title : DD 5.1 @ 384 kbps - MVO, R5
Language : Russian
Default : Yes
Forced : Yes

Audio #2
ID : 3
Format : DTS
Format/Info : Digital Theater Systems
Codec ID : A_DTS
Duration : 1h 41mn
Bit rate mode : Constant
Bit rate : 1 510 Kbps
Channel(s) : 6 channels
Channel positions : Front: L C R, Side: L R, LFE
Sampling rate : 48.0 KHz
Bit depth : 16 bits
Compression mode : Lossy
Stream size : 1.07 GiB (23%)
Title : DTS 5.1 @ 1536 kbps
Language : English
Default : No
Forced : No

Text
ID : 4
Format : UTF-8
Codec ID : S_TEXT/UTF8
Codec ID/Info : UTF-8 Plain Text
Language : Russian
Default : No
Forced : No




cebd9de08f24cded9d43b8b8767b9978c66752c6Паладин / Dawn Of The Dragonslayer (Энн К. Блэк, фэнтези, боевик, приключения, 2011г.) [BDRip 720p, Профессиональное (многоголосое) + English + Субтитры] Паладин / Dawn Of The Dragonslayer (Энн К. Блэк, фэнтези, боевик, приключения, 2011г.) [BDRip 720p, Профессиональное (многоголосое) + English + Субтитры] " />

Аплоадер: Админ, дата: 10-08-2012, 11:00, торрент скачан: 359 раз

Понравилась раздача? Посмотрите эти:
  • Погнали! / Getaway (Кортни Соломон, боевик, криминал, 2013) [BDRip 720p, Пр ...
  • Суррогат / The Sessions (Бен Луин, драма, 2012) [BDRip 720p, Профессиональн ...
  • Зубная фея 2 / Tooth Fairy 2 (Алекс Замм, комедия, семейный, 2012) [BDRip 7 ...
  • Военные Игры / War Games: At The End Of The Day ( Козимо Алема, триллер, у ...
  • Исходный код / Source Code (Дункан Джонс, фантастика, боевик, триллер, 2011 ...
  • Бобер / The Beaver (Джоди Фостер, драма, 2011) [BDRip 720p, Дубляж + Оригин ...
  • Дети шпионов 4D / Spy Kids: All the Time in the World in 4D (Роберт Родриге ...
  • Конан-варвар / Conan the Barbarian (Маркус Ниспел, фэнтези, боевик, приключ ...
  • Значит, война / This Means War (МакДжи, боевик, мелодрама, комедия, 2012) [ ...
  • Закон доблести / Act of Valor (Майк МакКой, Скотт Во, боевик, триллер, прик ...
  • Проект X: Дорвались / Project X (Нима Нуризаде, комедия, 2012) [BDRip 720p, ...
  • Джок / Jock (Дункан МакНили, мультфильм, комедия, приключения, семейный, 20 ...
  • «Весёлые» каникулы / Get the Gringo (Адриан Грюнберг, Боевик, комедия, 2012 ...
  • Ворон / The Raven (Джеймс МакТиг, Триллер, детектив, 2012) [BDRip 720p, Дуб ...
  • Люди в черном 3 / Men in Black III (Барри Зонненфельд, Фантастика, боевик, ...
  • Mylene Farmer / Du Temps [2011, Pop, HDTVRip]
  • Mylene Farmer / Bleu Noir [2011, Pop, HDTVRip]
  • Город воров / The Town [EXTENDED] (Бен Аффлек / триллер, драма, криминал / ...
  • Паладин / Dawn of the Dragonslayer (Энн К. Блэк, Фэнтези, боевик, приключен ...
  • Паладин / Dawn of the Dragonslayer (Энн К. Блэк, фэнтези, боевик, приключен ...
  • Информация
    Посетители, находящиеся в группе Гости, не могут оставлять комментарии к данной публикации.