вход на сайт

Имя пользователя :
Пароль :

Восстановление пароля Регистрация
Военные Игры / War Games: At The End Of The Day ( Козимо Алема, триллер, ужасы, боевик, 2010г.) [ BDRip 720p, Профессиональное (многоголосое) + English]
Рейтинг:
(голосов: 1)



[img]{THEME}/images/logopost.png[/img]



Военные Игры / War Games: At The End Of The Day
This story is inspired by true events that took place in the winter of 1988

Год выпуска: 2010
Страна: Италия
Производство: The Mob, T.M. 2005, Frame by Frame
Жанр: триллер, ужасы, боевик

Режиссёр:Козимо Алема
В ролях: Стефани Чапман-Бакер, Сэм Кохан, Валене Кейн, Нейл Линпов, Лутс Майкл, Эндрю Миллс, Моника Мирга, Майкл Скерми, Том Стэнли, Дэниэл Вивиани

Перевод: Профессиональное (многоголосое) + English
Субтитры: нет

Описание: Во время соревнования по пейнтболу участники военной игры сталкиваются с убийцей…

IMDB: рейтинг 4.30/10 (486)
КиноПоиск: рейтинг 4.807/10 (102)

Качество: BDRip 720p
Продолжительность: 01:37:50

Формат: MKV
Главы: (есть) (Сохранены оригинальные чаптеры как на Blu-Ray)
Видео кодек: MPEG4
Аудио кодек: (AC3, DTS)
Видео: 1 280x688 (1.860), 23.976 fps, MPEG4, ~ 5 608 kbps avg, 0.266 bit/pix
Аудио: Russian, 5.1 / 48 kHz / 224kbps (2 ch) (Профессиональное (многоголосое)
Аудио: English, 5.1 / 48 kHz / 1 510kbps


MediaInfo ▼
General
Unique ID : 221551492989466872683893304615481665490 (0xA6AD43F500F9063AAA01F882DCCC67D2)
Complete name : Voennye.igry.2011.P.BDRip,720p
Format : Matroska
Format version : Version 2
File size : 5.02 GiB
Duration : 1h 37mn
Overall bit rate : 7 343 Kbps
Movie name : IRONCLUB
Encoded date : UTC 2012-08-09 09:56:52
Writing application : mkvmerge v4.9.1 (Ich will) built on Jul 11 2011 23:53:15
Writing library : libebml v1.2.1 + libmatroska v1.1.1

Video
ID : 1
Format : AVC
Format/Info : Advanced Video Codec
Format profile : [email protected]
Format settings, CABAC : Yes
Format settings, ReFrames : 5 frames
Codec ID : V_MPEG4/ISO/AVC
Duration : 1h 37mn
Bit rate : 5 608 Kbps
Width : 1 280 pixels
Height : 688 pixels
Display aspect ratio : 1.860
Frame rate : 23.976 fps
Color space : YUV
Chroma subsampling : 4:2:0
Bit depth : 8 bits
Scan type : Progressive
Bits/(Pixel*Frame) : 0.266
Stream size : 3.73 GiB (74%)
Title : War.Games.2011.720p.BluRay.x264-LOST
Writing library : x264 core 120 r2120 0c7dab9
Encoding settings : cabac=1 / ref=5 / deblock=1:0:0 / analyse=0x3:0x113 / me=umh / subme=7 / psy=1 / psy_rd=1.00:0.15 / mixed_ref=1 / me_range=16 / chroma_me=1 / trellis=1 / 8x8dct=1 / cqm=0 / deadzone=21,11 / fast_pskip=0 / chroma_qp_offset=-3 / threads=12 / sliced_threads=0 / nr=0 / decimate=1 / interlaced=0 / bluray_compat=0 / constrained_intra=0 / bframes=3 / b_pyramid=2 / b_adapt=1 / b_bias=0 / direct=1 / weightb=1 / open_gop=0 / weightp=2 / keyint=250 / keyint_min=23 / scenecut=40 / intra_refresh=0 / rc_lookahead=40 / rc=2pass / mbtree=1 / bitrate=5608 / ratetol=1.0 / qcomp=0.60 / qpmin=0 / qpmax=69 / qpstep=4 / cplxblur=20.0 / qblur=0.5 / ip_ratio=1.40 / aq=1:1.00
Language : English
Default : Yes
Forced : No

Audio #1
ID : 2
Format : AC-3
Format/Info : Audio Coding 3
Mode extension : CM (complete main)
Codec ID : A_AC3
Duration : 1h 37mn
Bit rate mode : Constant
Bit rate : 224 Kbps
Channel(s) : 2 channels
Channel positions : Front: L R
Sampling rate : 48.0 KHz
Bit depth : 16 bits
Compression mode : Lossy
Stream size : 157 MiB (3%)
Title : DD 2.0 @ 224 kbps - MVO, R5
Language : Russian
Default : Yes
Forced : Yes

Audio #2
ID : 3
Format : DTS
Format/Info : Digital Theater Systems
Codec ID : A_DTS
Duration : 1h 37mn
Bit rate mode : Constant
Bit rate : 1 510 Kbps
Channel(s) : 6 channels
Channel positions : Front: L C R, Side: L R, LFE
Sampling rate : 48.0 KHz
Bit depth : 24 bits
Compression mode : Lossy
Stream size : 1.03 GiB (21%)
Title : DTS 5.1 @ 1536 kbps
Language : English
Default : No
Forced : No

Menu
00:00:00.000 : en:00:00:00.000
00:03:27.249 : en:00:03:27.249
00:09:53.551 : en:00:09:53.551
00:12:45.223 : en:00:12:45.223
00:17:16.869 : en:00:17:16.869
00:20:45.286 : en:00:20:45.286
00:25:54.261 : en:00:25:54.261
00:30:04.177 : en:00:
35ebcdf87805207a3ca5cd1fc4117e8628a0fa24Военные Игры / War Games: At The End Of The Day ( Козимо Алема, триллер, ужасы, боевик, 2010г.) [ BDRip 720p, Профессиональное (многоголосое) + English] Военные Игры / War Games: At The End Of The Day ( Козимо Алема, триллер, ужасы, боевик, 2010г.) [ BDRip 720p, Профессиональное (многоголосое) + English] " />

Аплоадер: Админ, дата: 10-08-2012, 10:27, торрент скачан: 359 раз

Понравилась раздача? Посмотрите эти:
  • Убить по расписанию / Ticking Clock (Эрни Барбараш, фантастика, боевик, три ...
  • Шелуха / Husk (Бретт Симмонс, ужасы, триллер, 2011) [BDRip 720p, Профессион ...
  • Паладин / Dawn Of The Dragonslayer (Энн К. Блэк, фэнтези, боевик, приключе ...
  • Гробовщик / The Mortician (Гарет Максвелл Робертс, триллер, 2011) [BDRip-AV ...
  • Исходный код / Source Code (Дункан Джонс, фантастика, боевик, триллер, 2011 ...
  • Дети шпионов 4D / Spy Kids: All the Time in the World in 4D (Роберт Родриге ...
  • Экстрасенс / The Awakening (Ник Мерфи, ужасы, триллер, 2011) [BDRip 720p, Д ...
  • Закон доблести / Act of Valor (Майк МакКой, Скотт Во, боевик, триллер, прик ...
  • «Весёлые» каникулы / Get the Gringo (Адриан Грюнберг, Боевик, комедия, 2012 ...
  • Ворон / The Raven (Джеймс МакТиг, Триллер, детектив, 2012) [BDRip 720p, Дуб ...
  • Голодные игры / The Hunger Games (Гэри Росс, Фантастика, боевик, приключени ...
  • Семь футов / Seven Below (Кевин Каррауэй, Ужасы, триллер, 2012) [BDRip 720p ...
  • Хижина в лесу / The Cabin in the Woods (Дрю Годдард, Ужасы, фантастика, три ...
  • Красные огни / Red Lights (Родриго Кортес, Ужасы, триллер, драма, 2012) [BD ...
  • Цунами 3D / Bait (Кимбл Рендалл, Ужасы, боевик, триллер, 2011) [BDRip 720p ...
  • Оборотень: Зверь среди нас / Werewolf: The Beast Among Us (Луи Морно, ужасы ...
  • Mylene Farmer / Du Temps [2011, Pop, HDTVRip]
  • Mylene Farmer / Bleu Noir [2011, Pop, HDTVRip]
  • Город воров / The Town [EXTENDED] (Бен Аффлек / триллер, драма, криминал / ...
  • Военные игры / War Games: At the End of the Day(Козимо Алема, Триллер, Ужас ...
  • Информация
    Посетители, находящиеся в группе Гости, не могут оставлять комментарии к данной публикации.