вход на сайт

Имя пользователя :
Пароль :

Восстановление пароля Регистрация
Последнее завещание Нобеля / Nobels testamente (Петер Флинт, триллер, драма, криминал, детектив, 2012) [BDrip 720р, полное дублирование]
Рейтинг:
(голосов: 1)



[img]{THEME}/images/logopost.png[/img]



Последнее завещание Нобеля / Nobels testamente


Год выпуска: 2012
Страна:Швеция
Производство: Yellow Bird Films AB
Жанр: триллер, драма, криминал, детектив

Режиссёр: Петер Флинт
В ролях: Малин Крепин, Бьёрн Чьелльман, Лейф Андре, Кайса Эрнст, Эрик Йоханссон, Феликс Энгстрем, Ричард Ульфзэтер, Андреас Ротлин-Свенссон, Антье Трое, Пер Граффман

Перевод:полное дублирование
Субтитры: Отсутствуют


Описание: Во время торжественного ужина по случаю вручения Нобелевской премии репортер криминальной хроники Аника Бенгцтон становится невольным свидетелем убийства высокопоставленного чиновника. Полиция запрещает ей оглашать какие-либо подробности по делу, но репортер до мозга костей не в силах противиться журналистскому призванию. Аника начинает самостоятельное расследование, которое приводит ее к страшной разгадке.

Качество: BDRip 720p
Продолжительность: 01:32:42 час.

Формат: MKV
Видео кодек: H.264
Аудио кодек: AC3
Видео:AVC, 1280x544 (2.35), 24.000 fps, 5 240 Kbps (0.307 bit/pixel)
Аудио:AC-3, 48.0 KHz, 6 ch, 384 Kbps, CBR


Дата премьеры (мир): 2 марта 2012
Дата премьеры (РФ): 12 апреля 2012


MediaInfo
▼Видео
Идентификатор : 1
Формат : AVC
Формат/Информация : Advanced Video Codec
Профиль формата : [email protected]
Параметр CABAC формата : Да
Параметр ReFrames формата : 5 кадров
Идентификатор кодека : V_MPEG4/ISO/AVC
Продолжительность : 1 ч. 32 м.
Битрейт : 5240 Кбит/сек
Ширина : 1280 пикселей
Высота : 544 пикселя
Соотношение сторон : 2,35:1
Частота кадров : 24,000 кадра/сек
Цветовое пространство : YUV
Субдискретизация насыщенности : 4:2:0
Битовая глубина : 8 бит
Тип развёртки : Прогрессивная
Бит/(Пиксели*Кадры) : 0.314
Размер потока : 3,32 Гбайт (91%)
Библиотека кодирования : x264 core 125 r2200 999b753
Язык : Swedish
Default : Нет
Forced : Нет

Аудио
Идентификатор : 2
Формат : AC-3
Формат/Информация : Audio Coding 3
Расширение режима : CM (complete main)
Идентификатор кодека : A_AC3
Продолжительность : 1 ч. 32 м.
Вид битрейта : Постоянный
Битрейт : 384 Кбит/сек
Каналы : 6 каналов
Расположение каналов : Front: L C R, Side: L R, LFE
Частота : 48,0 КГц
Битовая глубина : 16 бит
Метод сжатия : С потерями
Задержка видео : 6 мс.
Размер потока : 255 Мбайт (7%)
Заголовок : AC3.384.Kbps
Язык : Russian
Default : Да
Forced : Нет

Библиотека кодирования : x264 core 125 r2200 999b753
Настройки программы : cabac=1 / ref=5 / deblock=1:0:0 / analyse=0x3:0x133 / me=umh / subme=7 / psy=1 / psy_rd=1.00:0.00 / mixed_ref=1 / me_range=16 / chroma_me=1 / trellis=1 / 8x8dct=1 / cqm=0 / deadzone=21,11 / fast_pskip=0 / chroma_qp_offset=-2 / threads=12 / lookahead_threads=2 / sliced_threads=0 / nr=0 / decimate=1 / interlaced=0 / bluray_compat=0 / constrained_intra=0 / bframes=3 / b_pyramid=2 / b_adapt=2 / b_bias=0 / direct=3 / weightb=1 / open_gop=0 / weightp=2 / keyint=250 / keyint_min=24 / scenecut=40 / intra_refresh=0 / rc_lookahead=50 / rc=2pass / mbtree=1 / bitrate=5240 / ratetol=1.0 / qcomp=0.60 / qpmin=0 / qpmax=69 / qpstep=4 / cplxblur=20.0 / qblur=0.5 / ip_ratio=1.40 / aq=1:1.00
Язык : Swedish



ac71998a73efad481151a3b477ba6e89c0157ce4Последнее завещание Нобеля / Nobels testamente (Петер Флинт, триллер, драма, криминал, детектив, 2012) [BDrip 720р, полное дублирование] Последнее завещание Нобеля / Nobels testamente (Петер Флинт, триллер, драма, криминал, детектив, 2012) [BDrip 720р, полное дублирование] " />

Аплоадер: Админ, дата: 23-06-2012, 22:52, торрент скачан: 359 раз

Понравилась раздача? Посмотрите эти:
  • 11.6 / 11.6 (Филипп Годо, Драма, триллер, криминал, 2013) [BDRip-AVC, Профе ...
  • Иллюзия обмана / Now You See Me [Extended Cut] (Луи Летерье, триллер, крими ...
  • Иллюзия обмана / Now You See Me [Extended Cut] (Луи Летерье, триллер, крими ...
  • Заклятие / The Conjuring (Джеймс Ван, ужасы, триллер, 2013) [BDRip 720р, Ду ...
  • Летучий отряд Скотланд-Ярда / The Sweeney (Ник Лав, Боевик, драма, криминал ...
  • Перелом / Fracture (Грегори Хоблит, Триллер, драма, криминал, детектив, 200 ...
  • Паркер / Parker (Тейлор Хэкфорд, Боевик, триллер, криминал, 2013) [BDRip-AV ...
  • Суррогат / The Sessions (Бен Луин, Драма, 2012) [BDRip-AVC, Профессиональны ...
  • Драйв / Drive (Николас Виндинг Рёфн, боевик, триллер, драма, криминал, 2011 ...
  • Последнее завещание Нобеля / Nobels testamente (Петер Флинт, Драма, кримина ...
  • Последнее завещание Нобеля / Nobels testamente (Петер Флинт, Драма, кримина ...
  • Я, Алекс Кросс / Alex Cross (Роб Коэн, Боевик, триллер, криминал, детектив, ...
  • Перелом / Fracture (Грегори Хоблит, триллер, драма, криминал, детектив, 200 ...
  • Лоракс: Серенада / The Lorax: Serenade (Кайл Балда, мультфильм, комедия, му ...
  • Морской бой / Battleship (Питер Берг, Фантастика, Боевик, Триллер, 2012) [B ...
  • Петля времени / Looper (Райан Джонсон, Фантастика, боевик, триллер, кримина ...
  • Последнее завещание Нобеля / Nobels testamente (Петер Флинт, триллер, драма ...
  • Последнее завещание Нобеля / Nobels testamente (Петер Флинт, триллер, драма ...
  • Последнее завещание Нобеля / Nobels testamente (Петер Флинт, триллер, драма ...
  • Последнее завещание Нобеля / Nobels testamente (Петер Флинт, триллер, драма ...
  • Информация
    Посетители, находящиеся в группе Гости, не могут оставлять комментарии к данной публикации.