вход на сайт

Имя пользователя :
Пароль :

Восстановление пароля Регистрация
Бруно / Bruno (Саша Барон Коэн, сатира, 2009) [BDRip 1080p, дубляж, оригинал, субтитры]
Рейтинг:
(голосов: 1)



[img]{THEME}/images/logopost.png[/img]



Бруно — Bruno

Год выпуска: 2009
Страна: США
Производство: Universal Pictures
Жанр: псевдодокументальный художественный фильм, сатира

Перевод: профессиональный дубляж, английский оригинал
Cубтитры: русские, английские (отключаемые)

Автор сценария: Саша Барон Коэн
Режиссёр: Ларри Чарльз
Композитор: Эрран Барон Коэн
В ролях: Саша Барон Коэн

Описание: «Бруно: восхитительные путешествия по Америке с целью заставить мужчин-гетеросексуалов почувствовать себя явно неловко в присутствии голубого иностранца в футболке-сеточке» (англ. Bruno, пародия на нем.) — американский фильм 2009 года. Соавтор сценария, продюсер и исполнитель главной роли Саша Барон Коэн. Главный герой фильма — Бруно — австрийский тележурналист-гомосексуал. Это уже третий фильм о персонаже из Da Ali G Show; предыдущими были «Али Джи» и «Борат».

IMDB: 6.1 (75557)
КиноПоиск: 5.434 (15151)

Качество: BDRip 1080p (источник)
Продолжительность: 01:21:27 часов

Формат: .MKV
Логотип: присутствует
Видео кодек: x264
Аудио кодек: DTS
Свойства видео: 1920x1040 (16:9), 23.976 fps, MPEG-4 AVC ~9429 VA kbps avg. VBR, DXVA, 0.209 bit/pixel
Свойства аудио:

Русский (профессиональный дубляж): DLs Digital Theatre Systems5.1 (DTS) 6 ch, 1536 kbps, 48 kHz @ 24 bit;
Английский (оригинал): DLs Digital Theatre Systems5.1 (DTS) 6 ch, 1536 kbps, 48 kHz @ 24 bit;
mediainfo ▼TextGeneral
Unique ID : 188105126537911989407666776602597518350 (0x8D83BAC65BCAD244B7542C5DD579EC0E)
Complete name : Bruno.1080p.BluRay.x264.mkv
Format : Matroska
Format version : Version 2
File size : 7.42 GiB
Duration : 1h 21mn
Overall bit rate : 13.0 Mbps
Encoded date : UTC 2009-11-07 06:37:42
Writing application : mkvmerge v2.9.8 (Cest le bon) built on Aug 13 2009 12:49:06
Writing library : libebml v0.7.7 + libmatroska v0.8.1

Video
ID : 1
Format : AVC
Format/Info : Advanced Video Codec
Format profile : [email protected]
Format settings, CABAC : Yes
Format settings, ReFrames : 4 frames
Codec ID : V_MPEG4/ISO/AVC
Duration : 1h 21mn
Bit rate : 10.0 Mbps
Width : 1 920 pixels
Height : 1 040 pixels
Display aspect ratio : 16:9
Frame rate : 23.976 fps
Color space : YUV
Chroma subsampling : 4:2:0
Bit depth : 8 bits
Scan type : Progressive
Bits/(Pixel*Frame) : 0.209
Stream size : 5.55 GiB (75%)
Writing library : x264 core 78 r1318 fe83a90
Encoding settings : cabac=1 / ref=4 / deblock=1:0:0 / analyse=0x3:0x113 / me=umh / subme=7 / psy=1 / psy_rd=1.0:0.2 / mixed_ref=1 / me_range=16 / chroma_me=1 / trellis=1 / 8x8dct=1 / cqm=0 / deadzone=21,11 / chroma_qp_offset=-3 / threads=12 / nr=0 / decimate=1 / mbaff=0 / constrained_intra=0 / bframes=3 / b_pyramid=0 / b_adapt=1 / b_bias=0 / direct=1 / wpredb=1 / keyint=250 / keyint_min=25 / scenecut=40 / rc_lookahead=40 / rc=2pass / mbtree=1 / bitrate=10020 / ratetol=1.0 / qcomp=0.60 / qpmin=10 / qpmax=51 / qpstep=4 / cplxblur=20.0 / qblur=0.5 / ip_ratio=1.40 / aq=1:1.00
Language : English
Default : Yes
Forced : No

Audio #1
ID : 2
Format : DTS
Format/Info : Digital Theater Systems
Codec ID : A_DTS
Duration : 1h 21mn
Bit rate mode : Constant
Bit rate : 1 510 Kbps
Channel(s) : 6 channels
Channel positions : Front: L C R, Side: L R, LFE
Sampling rate : 48.0 KHz
Bit depth : 24 bits
Compression mode : Lossy
Delay relative to video : 1s 1ms
Stream size : 880 MiB (12%)
Title : DTS 5.1 1536 kbps
Language : Russian
Default : Yes
Forced : No

Audio #2
ID : 3
Format : DTS
Format/Info : Digital Theater Systems
Codec ID : A_DTS
Duration : 1h 21mn
Bit rate mode : Constant
Bit rate : 1 510 Kbps
Channel(s) : 6 channels
Channel positions : Front: L C R, Side: L R, LFE
Sampling rate : 48.0 KHz
Bit depth : 24 bits
Compression mode : Lossy
Stream size : 880 MiB (12%)
Title : DTS 5.1 1536 kbps
Language : English
Default : No
Forced : No

Text #1
ID : 4
Format : UTF-8
Codec ID : S_TEXT/UTF8
Codec ID/Info : UTF-8 Plain Text
Language : Russian
Default : No
Forced : No

Text #2
ID : 5
Format : UTF-8
Codec ID : S
3c76d4cd8f3f32c19c49467a407d31f05be98252Бруно / Bruno (Саша Барон Коэн, сатира, 2009) [BDRip 1080p, дубляж, оригинал, субтитры] Бруно / Bruno (Саша Барон Коэн, сатира, 2009) [BDRip 1080p, дубляж, оригинал, субтитры] " />

Аплоадер: Админ, дата: 12-06-2012, 12:13, торрент скачан: 359 раз

Понравилась раздача? Посмотрите эти:
  • Паркер / Parker (Тейлор Хэкфорд, Боевик, триллер, криминал, 2013) [BDRip 7 ...
  • Отверженные / Les Miserables (Том Хупер, Мюзикл, драма, мелодрама, 2012) [B ...
  • Война невест / Bride Wars (Гари Виник, комедия, мелодрама, 2009) [ BDRip 10 ...
  • Хичкок / Hitchcock (Саша Джерваси, Драма, история, биография, 2012) [BDRip ...
  • Толстяк на ринге / Here Comes the Boom (Фрэнк Корачи, Боевик, комедия, 201 ...
  • Анна Каренина / Anna Karenina (Джо Райт, Драма, мелодрама, 2012) [BDRip 108 ...
  • Хранитель времени / Hugo (Мартин Скорсезе, Драма, 2011) [BDRip-AVC, Професс ...
  • Хранитель времени / Hugo (Мартин Скорсезе, Драма, 2011) [BDRip-AVC, Професс ...
  • Мальчики-налётчики / Takers (Джон Льюсенхоп, боевик, криминал, 2010) [BDRip ...
  • Двойник дьявола / The Devils Double (Ли Тамахори, драма, биография, 2011) [ ...
  • Один дома 2: Затерянный в Нью-Йорке / Home Alone 2: Lost in New York (Крис ...
  • Дом грёз / Dream House (Джим Шеридан, триллер, драма, детектив, 2011) [BDRi ...
  • Феи: Потерянное сокровище / Tinker Bell and the Lost Treasur (Клэй Холл, му ...
  • «Весёлые» каникулы / Get the Gringo (Адриан Грюнберг, Боевик, комедия, 2012 ...
  • Ворон / The Raven (Джеймс МакТиг, Триллер, детектив, 2012) [BDRip 720p, Дуб ...
  • Диктатор / The Dictator (Ларри Чарльз, комедия, 2012) [BDRip 1080p, Авторск ...
  • Морской бой / Battleship (Питер Берг, Фантастика, боевик, триллер, приключе ...
  • Хижина в лесу / The Cabin in the Woods (Дрю Годдард, Ужасы, фантастика, три ...
  • Мадагаскар 3 / Madagascar 3: Europes Most Wanted (Эрик Дарнелл, Том МакГрат ...
  • Супер Майк / Magic Mike (Стивен Содерберг, Драма, комедия, 2012) [BDRip 720 ...
  • Супер Майк / Magic Mike (Стивен Содерберг, Драма, комедия, 2012) [BDRip 108 ...
  • Третий лишний / Ted (Сет МакФарлейн, Фэнтези, комедия, 2012) [BDRip 1080p, ...
  • Эволюция Борна / The Bourne Legacy (Тони Гилрой, Боевик, триллер, детектив, ...
  • Я, Алекс Кросс / Alex Cross (Роб Коэн, Боевик, триллер, криминал, детектив, ...
  • Бруно / Bruno (Ларри Чарльз, комедия, 2009) [BDRip / Профессиональный, дубл ...
  • Информация
    Посетители, находящиеся в группе Гости, не могут оставлять комментарии к данной публикации.