вход на сайт

Имя пользователя :
Пароль :

Восстановление пароля Регистрация
Ошибка телохранителя / The Girl from the Naked Eye (Дэвид Рен, боевик, триллер, мелодрама, 2012) [BDRip 720p, Профессиональный (многоголосый, закадровый) + Оригинал +SUB]
Рейтинг:
(голосов: 1)



[img]{THEME}/images/logopost.png[/img]



Ошибка телохранителя / The Girl from the Naked Eye
«How far would you go if the only girl you ever loved was murdered?»

Год выпуска: 2011
Страна: США
Производство: Mu-Yee Productions, MiniFlix Films
Жанр: боевик, триллер, мелодрама

Режиссёр: Дэвид Рен
В ролях: Джейсон Йи, Саманта Стритс, Гари Стретч, Доминик Суэйн, Рон Йуан, Уилсон Жермен Эредия, Саша Грэй, Джерри Йинг, Джеймс Лью, Пит Антико

Перевод:Профессиональный (многоголосый, закадровый) + Оригинал
Субтитры: Russian, English

Описание: Сэнди, работающая по вызову в ночном клубе «Голый глаз», нанимает телохранителя Джейка. Когда Джейк находит её мёртвой в своей квартире, то начинает своё собственное расследование смерти Сэнди и начинает самую настоящую охоту на её убийц…

IMDB: рейтинг 5 (637)
КиноПоиск: рейтинг4.56 (135)


Качество: BDRip 720p
Продолжительность: 01:23:41

Формат: MKV
Видео кодек:AVC
Аудио кодек: Audio Coding 3, DTS
Видео: 1280x544, 2,35:1, 5964 Кбит/сек, 0.357 Бит/Пиксель
Аудио№1: Russian: 48 kHz, AC3, 6 ch, ~384.00 kbps avg
Аудио№2: English: 48 kHz, DTS, 6 ch, ~1510.00 kbps avg



MediaInfo ▼
TextОбщее
Уникальный идентификатор : 179470811752398614482464123361930175294 (0x8704D23050E234419E860A90C3D6E33E)
Полное имя : E:UsersТемирланDesktopФильмыOshibka.telohranitelja.2011.P.BDRip.720p.IRONCLUB.mkv
Формат : Matroska
Версия формата : Version 2
Размер файла : 4,59 Гбайт
Продолжительность : 1 ч. 23 м.
Общий поток : 7859 Кбит/сек
Название фильма : The Girl from the Naked Eye (2011) BDRip 720p IRONCLUB
Дата кодирования : UTC 2012-06-01 13:04:01
Программа кодирования : mkvmerge v4.9.1 (Ich will) built on Jul 11 2011 23:53:15
Библиотека кодирования : libebml v1.2.1 + libmatroska v1.1.1

Видео
Идентификатор : 1
Формат : AVC
Формат/Информация : Advanced Video Codec
Профиль формата : [email protected]
Параметр CABAC формата : Да
Параметр ReFrames формата : 5 кадров
Идентификатор кодека : V_MPEG4/ISO/AVC
Продолжительность : 1 ч. 23 м.
Битрейт : 5964 Кбит/сек
Ширина : 1280 пикселей
Высота : 544 пикселя
Соотношение сторон : 2,35:1
Частота кадров : 23,976 кадра/сек
Цветовое пространство : YUV
Субдискретизация насыщенности : 4:2:0
Битовая глубина : 8 бит
Тип развёртки : Прогрессивная
Бит/(Пиксели*Кадры) : 0.357
Размер потока : 3,40 Гбайт (74%)
Заголовок : The Girl from the Naked Eye (2011) BDRip 720p IRONCLUB
Библиотека кодирования : x264 core 120 r2164 da19765
Настройки программы : cabac=1 / ref=5 / deblock=1:0:0 / analyse=0x3:0x133 / me=umh / subme=7 / psy=1 / psy_rd=1.00:0.00 / mixed_ref=1 / me_range=16 / chroma_me=1 / trellis=1 / 8x8dct=1 / cqm=0 / deadzone=21,11 / fast_pskip=0 / chroma_qp_offset=-2 / threads=12 / sliced_threads=0 / nr=0 / decimate=1 / interlaced=0 / bluray_compat=0 / constrained_intra=0 / bframes=3 / b_pyramid=2 / b_adapt=1 / b_bias=0 / direct=1 / weightb=1 / open_gop=0 / weightp=2 / keyint=250 / keyint_min=23 / scenecut=40 / intra_refresh=0 / rc_lookahead=40 / rc=2pass / mbtree=1 / bitrate=5964 / ratetol=1.0 / qcomp=0.60 / qpmin=0 / qpmax=69 / qpstep=4 / cplxblur=20.0 / qblur=0.5 / ip_ratio=1.40 / aq=1:1.00
Язык : English
Default : Да
Forced : Нет

Аудио #1
Идентификатор : 2
Формат : AC-3
Формат/Информация : Audio Coding 3
Расширение режима : CM (complete main)
Параметр Endianness формата : Big
Идентификатор кодека : A_AC3
Продолжительность : 1 ч. 23 м.
Вид битрейта : Постоянный
Битрейт : 384 Кбит/сек
Каналы : 6 каналов
Расположение каналов : Front: L C R, Side: L R, LFE
Частота : 48,0 КГц
Битовая глубина : 16 бит
Метод сжатия : С потерями
Размер потока : 230 Мбайт (5%)
Заголовок : DD 5.1 @ 384 kbps - MVO, R5
Язык : Russian
Default : Да
Forced : Да

Аудио #2
Идентификатор : 3
Формат : DTS
Формат/Информация : Digital Theater Systems
Идентификатор кодека : A_DTS
Продолжительность : 1 ч. 23 м.
Вид битрейта : Постоянный
Битрейт : 1510 Кбит/сек
Каналы : 6 каналов
Расположение каналов : Front: L C R, S
4aaaa412380a8a87fd64eceb68669d325bc68338Ошибка телохранителя / The Girl from the Naked Eye (Дэвид Рен, боевик, триллер, мелодрама, 2012) [BDRip 720p, Профессиональный (многоголосый, закадровый) + Оригинал +SUB] Ошибка телохранителя / The Girl from the Naked Eye (Дэвид Рен, боевик, триллер, мелодрама, 2012) [BDRip 720p, Профессиональный (многоголосый, закадровый) + Оригинал +SUB] " />

Аплоадер: Админ, дата: 2-06-2012, 23:08, торрент скачан: 359 раз

Понравилась раздача? Посмотрите эти:
  • Мэрайа Мунди и шкатулка Мидаса / The Adventurer: The Curse of the Midas Box ...
  • Джобс: Империя соблазна / jOBS (Джошуа Майкл Штерн, драма, биография, 2013) ...
  • Погнали! / Getaway (Кортни Соломон, боевик, криминал, 2013) [BDRip 1080p, П ...
  • Иллюзия обмана / Now You See Me [Extended Cut] (Луи Летерье, триллер, крими ...
  • Заклятие / The Conjuring (Джеймс Ван, ужасы, триллер, 2013) [BDRip 720р, Ду ...
  • Заклятие / The Conjuring (Джеймс Ван, ужасы, триллер, 2013) [BDRip 1080p, Д ...
  • Больше чем мёд / More Than Honey (документальный, 2012) [BDRip 720p, Профес ...
  • Летучий отряд Скотланд-Ярда / The Sweeney (Ник Лав, Боевик, драма, криминал ...
  • Порочные игры / Stoker (Пак Чхан Ук, Триллер, драма, детектив, 2013) [BDRip ...
  • Рикошет / Ricochet (Ник Гомез, драма, детектив, 2011) [BDRip-AVC, Профессио ...
  • Суррогат / The Sessions (Бен Луин, Драма, 2012) [BDRip-AVC, Профессиональны ...
  • Думай, как мужчина / Think Like a Man (Тим Стори, Мелодрама, комедия, 2012) ...
  • Образец 47 / Marvel One-Shot: Item 47 (Луис Д’Эспозито, короткометражка, фа ...
  • Безумные мелодии: Кажется я видел котика / Looney Tunes: I Tawt I Taw а Pud ...
  • Заражение / Contagion (Стивен Содерберг, Фантастика, 2011) [BDRip 1080p, Пр ...
  • Переростки / The Inbetweeners (Бен Палмер / Ben Palmer, комедия, 2011) [BDR ...
  • Последняя любовь на Земле / Perfect Sense (Дэвид МакКензи, фантастика, драм ...
  • Бедная богатая девочка / Young Adult (Джейсон Райтман, драма, комедия, 2011 ...
  • Дирижёр (Павел Лунгин, драма, 2012) [BDRip 720p, Не требуется]
  • Бессонная ночь / Nuit blanche (Фредерик Жарден, Боевик, 2011) [BDRip 720p, ...
  • Свадебный разгром / A Few Best Men (Стефан Эллиотт, Комедия, 2011) [BDRip 7 ...
  • Бульвар спасения / Salvation Boulevard (Джордж Рэтлифф, Боевик, триллер, др ...
  • Павшая империя / Hirokin (Алехо Мо-Сан, фантастика, боевик, драма, приключе ...
  • Ошибка телохранителя / The Girl from the Naked Eye (Дэвид Рен, боевик, трил ...
  • Ошибка телохранителя / The Girl from the Naked Eye (Дэвид Рен, боевик, трил ...
  • Информация
    Посетители, находящиеся в группе Гости, не могут оставлять комментарии к данной публикации.