вход на сайт

Имя пользователя :
Пароль :

Восстановление пароля Регистрация
Шелуха / Husk (Бретт Симмонс, ужасы, триллер, 2011) [BDRip 720p, Профессиональный (многоголосый, закадровый) + Оригинал + Sub]
Рейтинг:
(голосов: 1)



[img]{THEME}/images/logopost.png[/img]



Шелуха / Husk
«Пора собирать урожай»

Год выпуска: 2011
Страна: США
Производство: After Dark Films
Жанр: ужасы, триллер

Режиссёр: Бретт Симмонс
В ролях: Девон Грайе, Уэс Чэтэм, С.Дж. Томасон, Таммин Сурсок, Бен Истер, Джош Скипворт, Ник Туссэн, Майкл Корнелисон, Аарон Харполд, Кэндис Роуз

Перевод: Профессиональный (многоголосый, закадровый) + Оригинал
Субтитры: русские (два варианта), английские

Описание: Пятеро друзей путешествуют по стране. Их авто мчится по проселочной дороге среди бескрайних кукурузных полей. Внезапно стая ворон врезается в ветровое стекло и машина съезжает в кювет. Ребята отправляются за помощью к ближайшему дому. Однако на заброшенной ферме нет живых людей. Единственный здешний обитатель — отвратительный монстр, напоминающее воронье пугало. И он не желает выпускать живым из этих зарослей кукурузы никого из них…



Качество: BDRip 720p (Husk 2011 1080p GER Blu-ray AVC DTS-HD MA 5.1)
Продолжительность: 01:23:04 час.

Формат: MKV
Видео кодек: AVC
Аудио кодек: АС3
Видео: 1280x720 (16:9), 23.976 fps, AVC ~5 550 kbps, 0.251 bit/pix
Аудио: 48 kHz, АС3, 6 ch, ~384.00 kbps avg | Russian (MVO)
Аудио: 48 kHz, АС3, 6 ch, ~448.00 kbps avg | English

Премьера (мир): 28 января 2011
Премьера (РФ): 23 июня 2011, «Top Film Distribution»
MediaInfo ▼General
Complete name : E:Ybit.Po.Raspisaniu.2011.720p.BDRip-Pyha.mkv
Format : Matroska
File size : 4.62 GiB
Duration : 1h 41mn
Overall bit rate : 6 538 Kbps
Encoded date : UTC 2011-01-22 21:14:00
Writing application : mkvmerge v4.4.0 (Die Wiederkehr) сборка от Oct 31 2010 21:52:48
Writing library : libebml v1.0.0 + libmatroska v1.0.0
Video
ID : 1
Format : AVC
Format/Info : Advanced Video Codec
Format profile : [email protected]
Format settings, CABAC : Yes
Format settings, ReFrames : 5 frames
Format settings, GOP : M=4, N=32
Muxing mode : Container [email protected]
Codec ID : V_MPEG4/ISO/AVC
Duration : 1h 41mn
Bit rate : 5 550 Kbps
Width : 1 280 pixels
Height : 720 pixels
Display aspect ratio : 16:9
Frame rate : 23.976 fps
Color space : YUV
Chroma subsampling : 4:2:0
Bit depth : 8 bits
Scan type : Progressive
Bits/(Pixel*Frame) : 0.251
Stream size : 3.80 GiB (82%)
Writing library : x264 core 112 r1834 a51816a
Encoding settings : cabac=1 / ref=5 / deblock=1:0:0 / analyse=0x3:0x133 / me=umh / subme=7 / psy=1 / psy_rd=1.00:0.00 / mixed_ref=1 / me_range=16 / chroma_me=1 / trellis=1 / 8x8dct=1 / cqm=0 / deadzone=21,11 / fast_pskip=0 / chroma_qp_offset=-2 / threads=12 / sliced_threads=0 / nr=0 / decimate=1 / interlaced=0 / constrained_intra=0 / bframes=3 / b_pyramid=2 / b_adapt=1 / b_bias=0 / direct=1 / weightb=1 / open_gop=0 / weightp=2 / keyint=250 / keyint_min=23 / scenecut=40 / intra_refresh=0 / rc_lookahead=40 / rc=2pass / mbtree=1 / bitrate=5550 / ratetol=1.0 / qcomp=0.60 / qpmin=10 / qpmax=51 / qpstep=4 / cplxblur=20.0 / qblur=0.5 / ip_ratio=1.40 / aq=1:1.00
Audio #1
ID : 2
Format : AC-3
Format/Info : Audio Coding 3
Mode extension : CM (complete main)
Codec ID : A_AC3
Duration : 1h 41mn
Bit rate mode : Constant
Bit rate : 384 Kbps
Channel(s) : 6 channels
Channel positions : Front: L C R, Side: L R, LFE
Sampling rate : 48.0 KHz
Bit depth : 16 bits
Stream size : 278 MiB (6%)
Title : Многоголосный
Language : Russian
Audio #2
ID : 3
Format : AC-3
Format/Info : Audio Coding 3
Mode extension : CM (complete main)
Codec ID : A_AC3
Duration : 1h 41mn
Bit rate mode : Constant
Bit rate : 640 Kbps
Channel(s) : 6 channels
Channel positions : Front: L C R, Side: L R, LFE
Sampling rate : 48.0 KHz
Bit depth : 16 bits
Stream size : 463 MiB (10%)
Text
ID : 4
Format : UTF-8
Codec ID : S_TEXT/UTF8
Codec ID/Info : UTF-8 Plain Text
Title : English





bf8b5e125dd17d3eba74d39a21d09f22ab449e75Шелуха / Husk (Бретт Симмонс, ужасы, триллер, 2011) [BDRip 720p, Профессиональный (многоголосый, закадровый) + Оригинал + Sub] Шелуха / Husk (Бретт Симмонс, ужасы, триллер, 2011) [BDRip 720p, Профессиональный (многоголосый, закадровый) + Оригинал + Sub] " />

Аплоадер: Админ, дата: 20-05-2012, 02:44, торрент скачан: 359 раз

Понравилась раздача? Посмотрите эти:
  • Пастырь / Priest (Скотт Чарльз Стюарт, ужасы, фантастика, боевик, триллер, ...
  • Верное дельце / Une pure affaire (Александр Коффре, Боевик, Комедия, Кримин ...
  • Смерть на похоронах / Death at a Funeral (Нил ЛаБут, комедия, 2010) [BDRip ...
  • Гость / The Caller (Мэттью Паркхилл, триллер, детектив, 2011) [BDRip 720p, ...
  • Суррогат / The Sessions (Бен Луин, драма, 2012) [BDRip 720p, Профессиональн ...
  • Зубная фея 2 / Tooth Fairy 2 (Алекс Замм, комедия, семейный, 2012) [BDRip 7 ...
  • Убить по расписанию / Ticking Clock (Эрни Барбараш, фантастика, боевик, три ...
  • Военные Игры / War Games: At The End Of The Day ( Козимо Алема, триллер, у ...
  • Затаившиеся / Hidden (Антуан Томас, ужасы, триллер, 2011) [HDRip-AVC, Дубли ...
  • Поворот не туда 4 / Wrong Turn 4 (Деклан О’Брайэн, ужасы, боевик, детектив, ...
  • Красная шапочка / Red Riding Hood (Кэтрин Хардвик, ужасы, фэнтези, триллер, ...
  • Исходный код / Source Code (Дункан Джонс, фантастика, боевик, триллер, 2011 ...
  • Паранормальное явление 3 / Paranormal Activity 3 [Theatrical Cut] (Генри Дж ...
  • Рыжий пес / Red Dog (Крив Стендерс, драма, комедия, семейный, 2011) [BDRip ...
  • Похищенная / A Lonely Place to Die (Джулиан Джилби, триллер, криминал, прик ...
  • Экстрасенс / The Awakening (Ник Мерфи, ужасы, триллер, 2011) [BDRip 720p, Д ...
  • Ворон / The Raven (Джеймс МакТиг, Триллер, детектив, 2012) [BDRip 720p, Дуб ...
  • Семь футов / Seven Below (Кевин Каррауэй, Ужасы, триллер, 2012) [BDRip 720p ...
  • Цунами 3D / Bait (Кимбл Рендалл, Ужасы, боевик, триллер, 2011) [BDRip 720p ...
  • Mylene Farmer / Du Temps [2011, Pop, HDTVRip]
  • Mylene Farmer / Bleu Noir [2011, Pop, HDTVRip]
  • Бункер / La cara oculta (Андрес Баиз, триллер, 2011) [BDRip 720p, Профессио ...
  • Шелуха / Husk (Бретт Симмонс, ужасы, триллер, 2011) [HDRip, Профессиональны ...
  • Шелуха / Husk (Бретт Симмонс / Brett Simmons, ужасы, триллер, 2011) [HDRip, ...
  • Хостел 3 / Hostel: Part III (Скотт Спигел / Scott Spiegel, ужасы, триллер, ...
  • Информация
    Посетители, находящиеся в группе Гости, не могут оставлять комментарии к данной публикации.