вход на сайт

Имя пользователя :
Пароль :

Восстановление пароля Регистрация
Убить Боно / Killing Bono (Ник Хэмм, комедия, 2010) [BDRip 720p, Профессиональный (многоголосый закадровый) + Оригинал + Sub]
Рейтинг:
(голосов: 1)



[img]{THEME}/images/logopost.png[/img]



Убить Боно / Killing Bono
«Они хотели переплюнуть U2»

Год выпуска: 2010
Страна: Великобритания
Производство: Salt Company International, The
Жанр: комедия

Режиссёр: Ник Хэмм
В ролях: Бен Барнс, Роберт Шиэн, Кристен Риттер, Пит Постлетуэйт, Джастин Уоддэлл, Питер Серафинович, Ральф Браун, Люк Тредэвэй, Мартин МакКанн, Хью О’Конор

Перевод: Профессиональный (многоголосый закадровый) + Оригинал
Субтитры: русские

Описание: Два неудачливых брата-ирландца Нил и Айвен МакКормики в конце 70-х создали в Дублине группу. К несчастью для парней, их одноклассники сделали то же самое — создали группу и назвали ее U2. Как вы понимаете, шансов у братьев не было.
"Знаете ли вы, что..." ▼-Для Пита Постлетуэйта картина оказалась последней. В январе 2011 года он скончался от рака.
-Сценарий написан по автобиографии Нила Маккормика, рок-журналиста газеты The Telegraph.


Качество: BDRip 720p
Продолжительность: 01:53:28 час.

Формат: MKV
Видео кодек: AVC
Аудио кодек: DTS
Видео: 1280x528 (2.40:1), 23.976 fps, AVC ~4 800 kbps, 0.288 bit/pix
Аудио: 48 kHz, DTS, 6 ch, ~1 344.00 kbps avg | Russian (MVO)
Аудио: 48 kHz, DTS, 6 ch, ~755.00 kbps avg | English

Премьера (мир): 1 апреля 2011
Премьера (РФ): 14 апреля 2011, «Каравелла DDC»
MediaInfo ▼General
Complete name : E:Ubit.Bono.2011.x264.BDRip(720p).UNIONGANG.mkv
Format : Matroska
File size : 5.48 GiB
Duration : 1h 53mn
Overall bit rate : 6 913 Kbps
Movie name : Killing Bono.BDRip 720p.FSB[uniongang.tv]
Encoded date : UTC 2011-07-08 22:44:49
Writing application : mkvmerge v4.8.0 (I Got The...) сборка от May 24 2011 03:12:58
Writing library : libebml v1.2.0 + libmatroska v1.1.0
Video
ID : 1
Format : AVC
Format/Info : Advanced Video Codec
Format profile : [email protected]
Format settings, CABAC : Yes
Format settings, ReFrames : 12 frames
Muxing mode : Container [email protected]
Codec ID : V_MPEG4/ISO/AVC
Duration : 1h 53mn
Bit rate : 4 677 Kbps
Nominal bit rate : 4 800 Kbps
Width : 1 280 pixels
Height : 528 pixels
Display aspect ratio : 2.40:1
Frame rate : 24.000 fps
Resolution : 8 bits
Colorimetry : 4:2:0
Scan type : Progressive
Bits/(Pixel*Frame) : 0.288
Stream size : 3.71 GiB (68%)
Title : Killing Bono.BDRip 720p.FSB[uniongang.tv]
Writing library : x264 core 115 r1995 c1e60b9
Encoding settings : cabac=1 / ref=12 / deblock=1:-2:-2 / analyse=0x3:0x133 / me=umh / subme=9 / psy=1 / psy_rd=1.00:0.15 / mixed_ref=1 / me_range=36 / chroma_me=1 / trellis=1 / 8x8dct=1 / cqm=0 / deadzone=21,11 / fast_pskip=0 / chroma_qp_offset=-3 / threads=6 / sliced_threads=0 / nr=0 / decimate=1 / interlaced=0 / bluray_compat=0 / constrained_intra=0 / bframes=5 / b_pyramid=2 / b_adapt=1 / b_bias=0 / direct=1 / weightb=1 / open_gop=0 / weightp=2 / keyint=250 / keyint_min=24 / scenecut=40 / intra_refresh=0 / rc_lookahead=40 / rc=2pass / mbtree=1 / bitrate=4800 / ratetol=1.0 / qcomp=0.60 / qpmin=0 / qpmax=69 / qpstep=4 / cplxblur=20.0 / qblur=0.5 / vbv_maxrate=50000 / vbv_bufsize=50000 / nal_hrd=none / ip_ratio=1.40 / aq=1:1.00
Audio #1
ID : 2
Format : DTS
Format/Info : Digital Theater Systems
Codec ID : A_DTS
Duration : 1h 53mn
Bit rate mode : Constant
Bit rate : 1 344 Kbps
Channel(s) : 6 channels
Channel positions : Front: L C R, Surround: L R, LFE
Sampling rate : 48.0 KHz
Resolution : 24 bits
Video delay : 11ms
Stream size : 1.07 GiB (19%)
Language : Russian
Audio #2
ID : 3
Format : DTS
Format/Info : Digital Theater Systems
Codec ID : A_DTS
Duration : 1h 53mn
Bit rate mode : Constant
Bit rate : 755 Kbps
Channel(s) : 6 channels
Channel positions : Front: L C R, Surround: L R, LFE
Sampling rate : 48.0 KHz
Resolution : 24 bits
Video delay : 11ms
Stream size : 612 MiB (11%)
Text
ID : 4
Format : UTF-8
Codec ID : S_TEXT/UTF8
Codec ID/Info : UTF-8 Plain Text
Language : Russian





ba11534444e67a902d025cc8f71276c670f9f5b0Убить Боно / Killing Bono (Ник Хэмм, комедия, 2010) [BDRip 720p, Профессиональный (многоголосый закадровый) + Оригинал + Sub] Убить Боно / Killing Bono (Ник Хэмм, комедия, 2010) [BDRip 720p, Профессиональный (многоголосый закадровый) + Оригинал + Sub] " />

Аплоадер: Админ, дата: 19-05-2012, 23:15, торрент скачан: 359 раз

Понравилась раздача? Посмотрите эти:
  • Сезон убийц / Killing Season (Марк Стивен Джонсон, триллер, драма, боевик, ...
  • Верное дельце / Une pure affaire (Александр Коффре, Боевик, Комедия, Кримин ...
  • Смерть на похоронах / Death at a Funeral (Нил ЛаБут, комедия, 2010) [BDRip ...
  • Гость / The Caller (Мэттью Паркхилл, триллер, детектив, 2011) [BDRip 720p, ...
  • Суррогат / The Sessions (Бен Луин, драма, 2012) [BDRip 720p, Профессиональн ...
  • Джекпот / Arme Riddere (Магнус Мартенс, Боевик, комедия, криминал, 2011) [B ...
  • Конец света / Fin (Хорхе Торрегросса, триллер, 2012) [BDRip 720p, Профессио ...
  • Зубная фея 2 / Tooth Fairy 2 (Алекс Замм, комедия, семейный, 2012) [BDRip 7 ...
  • Убить по расписанию / Ticking Clock (Эрни Барбараш, фантастика, боевик, три ...
  • Шелуха / Husk (Бретт Симмонс, ужасы, триллер, 2011) [BDRip 720p, Профессион ...
  • Исходный код / Source Code (Дункан Джонс, фантастика, боевик, триллер, 2011 ...
  • Дети шпионов 4D / Spy Kids: All the Time in the World in 4D (Роберт Родриге ...
  • Восстание планеты обезьян / Rise of the Planet of the Apes (Руперт Уайатт, ...
  • Дом грёз / Dream House (Джим Шеридан, триллер, драма, детектив, 2011) [BDRi ...
  • Рыжий пес / Red Dog (Крив Стендерс, драма, комедия, семейный, 2011) [BDRip ...
  • Такси 2 / Taxi 2 (Жерар Кравчик, боевик, комедия, криминал, 2000) [BDRip 72 ...
  • Проект X: Дорвались / Project X (Нима Нуризаде, комедия, 2012) [BDRip 720p, ...
  • Путешествие на край Вселенной / Journey to the Edge of the Universe (Явар А ...
  • Семь футов / Seven Below (Кевин Каррауэй, Ужасы, триллер, 2012) [BDRip 720p ...
  • Судный день / The Day (Дуглас Арниокоски, Фантастика, триллер, драма, 2011) ...
  • Дневник слабака 3 / Diary of a Wimpy Kid: Dog Days (Дэвид Бауэрс, комедия, ...
  • Убить Боно / Killing Bono (Ник Хэмм / комедия / 2011) [DVDRip, Профессионал ...
  • Убить Боно / Killing Bono (Ник Хэмм, комедия, 2011) [DVDRip, Профессиональн ...
  • Убить Боно / Killing Bono (Ник Хэмм, комедия, 2011) [DVDRip, Профессиональн ...
  • Убить Боно / Killing Bono (Ник Хэмм, комедия, 2011) [HDRip, Профессиональны ...
  • Информация
    Посетители, находящиеся в группе Гости, не могут оставлять комментарии к данной публикации.